<?xml version="1.0" standalone="no"?>
<!DOCTYPE svg PUBLIC "-//W3C//DTD SVG 1.1//EN" "http://www.w3.org/Graphics/SVG/1.1/DTD/svg11.dtd" >
<svg xmlns="http://www.w3.org/2000/svg">
<metadata></metadata>
<defs>
<font id="lobster_tworegular" horiz-adv-x="993" >
<font-face units-per-em="2048" ascent="1638" descent="-410" />
<missing-glyph horiz-adv-x="440" />
<glyph unicode="&#xfb01;" horiz-adv-x="933" d="M-172 -326q0 187 266 299v1176q0 55 12 107.5t40 103.5t70 89t106.5 61.5t144.5 23.5q150 0 229.5 -73t79.5 -179q0 -66 -30 -96.5t-74 -30.5q-42 0 -74.5 26.5t-32.5 67.5q0 31 16.5 60.5t41.5 33.5q-11 52 -51 75.5t-91 23.5q-54 0 -91.5 -25t-56.5 -71.5t-26.5 -100 t-7.5 -123.5v-98h166v-72h-166v-1116q0 -100 -19 -170t-55 -108t-79.5 -54t-100.5 -16q-108 0 -162.5 50.5t-54.5 135.5zM-92 -307q0 -41 27 -70t67 -29q29 0 47.5 16t28 49.5t13 73.5t3.5 99v64q-90 -43 -138 -97t-48 -106zM586 285v739h205v-696q0 -185 92 -185 q100 0 147 224h76q-17 -98 -44.5 -170.5t-55.5 -111.5t-63.5 -62t-62.5 -29t-59 -6q-67 0 -115.5 27t-73 72.5t-35.5 94t-11 103.5z" />
<glyph unicode="&#xfb02;" horiz-adv-x="933" d="M-172 -301q0 43 23 84.5t63 76t84 61.5t96 50v1178q0 47 3.5 85.5t13 86t29.5 82.5t51 66.5t80.5 48t113.5 16.5q46 0 87 -4t68.5 -8.5t66.5 -17t56 -18.5t64.5 -25.5t65.5 -26.5v-1106q0 -185 92 -185q100 0 147 224h76q-17 -98 -44.5 -170.5t-55.5 -111.5t-63.5 -62 t-62.5 -29t-59 -6q-67 0 -115.5 27t-73 72.5t-35.5 94t-11 103.5v1110q-77 10 -125 10q-53 0 -86.5 -19t-50 -59.5t-22 -86.5t-5.5 -118v-98h166v-72h-166v-1116q0 -87 -8.5 -148.5t-23.5 -100.5t-41.5 -61t-56.5 -30t-73 -8q-116 0 -192 54t-76 157zM-92 -307 q0 -41 26.5 -70t69.5 -29q28 0 46 16.5t27.5 50.5t13 73.5t3.5 97.5v64q-90 -43 -138 -97t-48 -106z" />
<glyph unicode="&#xfb03;" horiz-adv-x="1425" d="M-172 -330q0 175 266 299v1211q0 172 84 264t225 92q188 0 246 -170q98 168 320 168q150 0 229.5 -73t79.5 -179q0 -66 -30 -96.5t-74 -30.5q-42 0 -74.5 26.5t-32.5 67.5q0 32 16 61t41 33q-11 52 -50.5 75.5t-90.5 23.5q-54 0 -91.5 -25t-56.5 -71.5t-26.5 -100 t-7.5 -123.5v-98h166v-72h-166v-1116q0 -83 -18 -146.5t-46 -101t-68 -61t-77.5 -31.5t-79.5 -8q-85 0 -142.5 33.5t-103.5 99.5q-60 -133 -221 -133q-108 0 -162.5 50.5t-54.5 131.5zM-92 -307q0 -41 27 -70t67 -29q29 0 47.5 16t28 49.5t13 73.5t3.5 99v62 q-92 -46 -139 -98t-47 -103zM287 -311q73 -95 170 -95q30 0 52.5 9t43.5 33t32 73.5t11 122.5v213q-152 -27 -297 -70v-139q0 -86 -12 -147zM299 43q126 37 297 70v839h-297v-909zM299 1024h297v156q0 124 -34.5 174.5t-106.5 50.5q-40 0 -68.5 -14t-45.5 -37t-26.5 -61 t-12.5 -77t-3 -94v-98zM1077 285v739h205v-696q0 -185 92 -185q101 0 148 224h75q-18 -98 -45 -170.5t-55 -111.5t-63 -62t-62 -29t-59 -6q-67 0 -115.5 27t-73.5 72.5t-36 94t-11 103.5z" />
<glyph unicode="&#xfb04;" horiz-adv-x="1435" d="M-172 -330q0 175 266 299v1211q0 172 84 264t225 92q172 0 234 -141q68 139 250 139q46 0 87 -4t68.5 -8.5t66 -17t56 -19t64 -25t65.5 -26.5v-1106q0 -185 92 -185q101 0 148 224h76q-17 -98 -44.5 -170.5t-55.5 -111.5t-63.5 -62t-62.5 -29t-59 -6q-67 0 -115.5 27 t-73 72.5t-35.5 94t-11 103.5v1110q-77 10 -125 10q-53 0 -86.5 -19t-50 -59.5t-22 -86.5t-5.5 -118v-98h166v-72h-166v-1116q0 -83 -18 -146.5t-46 -101t-68 -61t-77.5 -31.5t-79.5 -8q-85 0 -142.5 33.5t-103.5 99.5q-60 -133 -221 -133q-108 0 -162.5 50.5t-54.5 131.5z M-92 -307q0 -41 27 -70t67 -29q29 0 47.5 16t28 49.5t13 73.5t3.5 99v62q-92 -46 -139 -98t-47 -103zM287 -311q73 -95 170 -95q30 0 52.5 9t43.5 33t32 73.5t11 122.5v213q-152 -27 -297 -70v-139q0 -86 -12 -147zM299 43q126 37 297 70v839h-297v-909zM299 1024h297v156 q0 124 -34.5 174.5t-106.5 50.5q-40 0 -68.5 -14t-45.5 -37t-26.5 -61t-12.5 -77t-3 -94v-98z" />
<glyph horiz-adv-x="2048" />
<glyph horiz-adv-x="2048" />
<glyph unicode="&#xd;" horiz-adv-x="2048" />
<glyph unicode=" "  horiz-adv-x="440" />
<glyph unicode="&#x09;" horiz-adv-x="440" />
<glyph unicode="&#xa0;" horiz-adv-x="440" />
<glyph unicode="!" horiz-adv-x="489" d="M111 125q0 56 39.5 96.5t95.5 40.5t96.5 -41t40.5 -96q0 -56 -40.5 -95.5t-96.5 -39.5q-57 0 -96 39t-39 96zM129 1434h229l-63 -961h-109z" />
<glyph unicode="&#x22;" horiz-adv-x="677" d="M84 1149l43 387h174l-104 -387h-113zM410 1149l43 387h174l-105 -387h-112z" />
<glyph unicode="#" horiz-adv-x="1077" d="M68 289v135h251v258h-251v135h245v653h74v-653h289v653h74v-653h260v-135h-260v-258h260v-135h-260v-344h-74v344h-289v-344h-65v344h-254zM387 424h289v258h-289v-258z" />
<glyph unicode="$" horiz-adv-x="776" d="M57 485q0 65 29 103.5t72 38.5q49 0 96 -47q-32 -4 -46.5 -35.5t-14.5 -71.5q0 -82 51 -130.5t116 -53.5v422q-14 10 -45 30t-47 31t-42.5 31t-41.5 34.5t-33.5 37t-27.5 43.5t-16 48t-7 56q0 94 70.5 157t175.5 72v219h84v-219q66 -5 120 -26.5t93 -69t39 -115.5 q0 -44 -15 -80t-46 -36q-36 0 -78 37q30 37 30 92t-38.5 93.5t-112.5 45.5v-350q39 -23 58 -34.5t55.5 -36t56 -43t46 -48t40 -58t23.5 -66.5t10 -79q0 -118 -85 -185.5t-220 -72.5v-274h-29l-6 274q-139 5 -226.5 74t-87.5 192zM250 1049q0 -86 100 -164v303 q-51 -14 -75.5 -53.5t-24.5 -85.5zM412 291q58 8 93.5 52t35.5 112q0 125 -129 215v-379z" />
<glyph unicode="%" horiz-adv-x="1257" d="M53 1104q0 148 66.5 241t181.5 93q53 0 93.5 -19t66 -49.5t41.5 -74t22 -88.5t6 -97q0 -63 -13.5 -121.5t-41.5 -110t-77 -82t-113 -30.5q-107 0 -169.5 84.5t-62.5 253.5zM168 1096q0 -29 2 -55.5t9.5 -64t21 -64.5t39 -46.5t59.5 -19.5q59 0 93 75.5t34 188.5 q0 142 -33 202t-84 60q-63 0 -102 -79t-39 -197zM315 0l506 1536h123l-506 -1536h-123zM733 338q0 148 67.5 241t182.5 93q65 0 111.5 -27.5t70.5 -76.5t34.5 -103.5t10.5 -120.5q0 -63 -13.5 -121.5t-41 -110t-76.5 -82t-114 -30.5q-107 0 -169.5 84.5t-62.5 253.5z M850 330q0 -250 129 -250q61 0 95 75t34 189q0 142 -33 202t-84 60q-64 0 -102.5 -78.5t-38.5 -197.5z" />
<glyph unicode="&#x26;" horiz-adv-x="1316" d="M74 426q0 156 74 265.5t202 162.5q-184 117 -184 309q0 69 25.5 135t74 120.5t127.5 88t176 33.5q60 0 113 -13t99.5 -41t74 -81t27.5 -125q0 -77 -31 -122.5t-82 -45.5q-56 0 -108 55q33 13 58 53t25 95q0 73 -48 110t-115 37q-105 0 -167.5 -85t-62.5 -201 q0 -21 2.5 -43.5t9.5 -56.5t23.5 -65.5t40 -62.5t63.5 -55t91 -37q-133 -30 -207 -136.5t-74 -256.5q0 -154 82 -246t242 -92q78 0 138.5 24.5t99 66t64 103t36.5 129t14 150.5q-17 1 -49 4.5t-57.5 5.5t-45.5 2q-133 0 -174 -92l-14 2q6 111 91 179.5t228 68.5 q32 0 83.5 -5t74.5 -5q63 0 113.5 22.5t64.5 65.5h13q2 -8 2 -27q0 -77 -78.5 -144.5t-192.5 -76.5q-6 -299 -140 -467t-376 -168q-96 0 -173 27.5t-127 72.5t-83.5 106t-48 125t-14.5 132z" />
<glyph unicode="'" horiz-adv-x="352" d="M84 1149l43 387h174l-104 -387h-113z" />
<glyph unicode="(" horiz-adv-x="552" d="M78 512q0 217 46 419t144.5 367.5t233.5 237.5l24 -55q-100 -53 -174.5 -209.5t-109.5 -353t-35 -404.5q0 -85 7 -169.5t29 -196.5t57.5 -212.5t99 -207.5t147.5 -191l-45 -49q-210 187 -317 452.5t-107 571.5z" />
<glyph unicode=")" horiz-adv-x="552" d="M6 1487l47 49q208 -187 315 -452.5t107 -571.5q0 -217 -46 -419t-144.5 -367.5t-233.5 -237.5l-22 55q100 53 174 209.5t108.5 353t34.5 404.5q0 85 -7 169.5t-29 196.5t-57.5 212.5t-99 207.5t-147.5 191z" />
<glyph unicode="*" horiz-adv-x="811" d="M66 1014l243 141l-243 141l49 82l237 -137v299h107v-299l237 137l49 -82l-245 -141l245 -141l-49 -82l-237 137v-299h-107v299l-237 -137z" />
<glyph unicode="+" horiz-adv-x="880" d="M63 506v143h293v250h170v-250h291v-143h-291v-293h-170v293h-293z" />
<glyph unicode="," horiz-adv-x="442" d="M80 141q0 51 42.5 86t90.5 35q74 0 109.5 -45t35.5 -119q0 -100 -56.5 -209t-131.5 -147q-29 16 -29 49q0 28 22.5 84t22.5 80q0 34 -11 49.5t-26.5 20t-31 11.5t-26.5 32t-11 73z" />
<glyph unicode="-" horiz-adv-x="651" d="M121 473v143h409v-143h-409z" />
<glyph unicode="." horiz-adv-x="428" d="M78 125q0 56 39.5 96.5t95.5 40.5q55 0 96 -41t41 -96q0 -56 -40.5 -95.5t-96.5 -39.5q-57 0 -96 39t-39 96z" />
<glyph unicode="/" horiz-adv-x="1032" d="M31 -512l870 2048h103l-871 -2048h-102z" />
<glyph unicode="0" horiz-adv-x="1204" d="M94 737q0 240 59.5 418.5t179.5 279.5t290 101q106 0 190 -41t138.5 -109.5t90.5 -164.5t51 -200t15 -222q0 -123 -16.5 -236t-55 -219.5t-96.5 -184t-147 -124.5t-199 -47t-200.5 46t-158 136t-104.5 234.5t-37 332.5zM350 743q0 -114 14 -216t44 -191.5t84 -142 t126 -52.5q73 0 128 55.5t87 153.5t47 217t15 260q0 140 -15 248.5t-39 174.5t-57.5 109t-67 59t-71.5 16q-93 0 -161.5 -100t-101 -254.5t-32.5 -336.5z" />
<glyph unicode="1" horiz-adv-x="630" d="M23 1266l6 106q220 0 444 160v-1532h-221v1266h-229z" />
<glyph unicode="2" horiz-adv-x="1034" d="M74 119q0 81 32.5 159t84.5 144t115 132.5t126 136t115 141.5t84.5 162t32.5 186q0 118 -49.5 186t-149.5 68q-91 0 -143 -53.5t-52 -129.5q0 -41 16.5 -84.5t53.5 -68.5q-43 -51 -104 -51q-68 0 -106 61t-38 143q0 132 104 207.5t287 75.5q98 0 173.5 -23.5t121 -60.5 t74.5 -89t40 -103.5t11 -108.5q0 -102 -35.5 -194t-92.5 -162.5t-126.5 -135t-140.5 -121.5t-131 -111t-101.5 -115t-48.5 -122q34 9 74 9q56 0 189.5 -18.5t203.5 -18.5q73 0 120 16.5t73.5 44t58.5 80.5q31 -81 31 -143q0 -176 -217 -176q-87 0 -252 32.5t-205 32.5 q-109 0 -203 -51q-26 39 -26 123z" />
<glyph unicode="3" horiz-adv-x="1091" d="M61 381q0 116 49.5 180t137.5 64q116 0 153 -99q-149 -8 -149 -170q0 -64 22.5 -110.5t60 -70t77 -34t82.5 -10.5q72 0 128 27.5t88 73.5t48 99.5t16 112.5q0 74 -25 142.5t-73 125.5t-126 95.5t-177 48.5q169 39 261.5 140t92.5 214q0 92 -59.5 157t-161.5 65 q-84 0 -131 -44t-47 -106q0 -93 104 -164q-54 -63 -125 -63q-66 0 -113 56t-47 144q0 90 53.5 155t135.5 94.5t182 29.5q78 0 150.5 -20t132 -58t95.5 -101t36 -143q0 -109 -62.5 -209t-164.5 -149q171 -68 249 -164.5t78 -230.5q0 -123 -71 -231.5t-194.5 -174 t-266.5 -65.5q-34 0 -68.5 3.5t-79 14.5t-84 28.5t-78.5 48t-66.5 70t-45 98.5t-17.5 130z" />
<glyph unicode="4" horiz-adv-x="974" d="M20 594q8 66 44.5 153t74 159t68.5 174.5t31 199.5q0 65 -11 140t-28 112q96 -1 151.5 -75t55.5 -195q0 -82 -28.5 -162.5t-64 -135t-78 -125.5t-61.5 -124h375v790l221 31v-821h170l-4 -121h-166v-594h-221v594h-529z" />
<glyph unicode="5" horiz-adv-x="1034" d="M66 346q0 111 45.5 170t117.5 59q47 0 87.5 -26t64.5 -78q-137 -12 -137 -139q0 -97 68.5 -155t162.5 -58q66 0 117.5 31t81 82.5t44.5 111t15 123.5q0 158 -86.5 246t-230.5 88q-84 0 -163.5 -28t-131.5 -66l143 792q24 -3 69 -10t66 -10t54 -6.5t60 -5t56 -1.5 q82 0 147 15t144 53q27 -69 27 -115q0 -157 -193 -157q-49 0 -108 9t-126 23.5t-93 18.5l-84 -424q120 63 249 63q108 0 192.5 -39t136 -105.5t78 -149.5t26.5 -177q0 -98 -29 -185.5t-86 -157t-150 -110t-211 -40.5q-60 0 -117 10.5t-113.5 36.5t-98.5 65.5t-68 102.5 t-26 143z" />
<glyph unicode="6" horiz-adv-x="1114" d="M88 662q0 175 36.5 330.5t106 278t181 194t252.5 71.5q134 0 217.5 -58.5t83.5 -136.5q0 -45 -27.5 -82.5t-79.5 -37.5q-15 0 -51 8q20 27 20 71q0 57 -44 99.5t-111 42.5q-80 0 -150 -68.5t-117 -180.5t-73.5 -256t-26.5 -294q0 -500 285 -500q75 0 131 33t85.5 87.5 t43.5 112.5t14 120q0 134 -61 216.5t-176 82.5q-121 0 -197 -119q-29 37 -29 74q0 69 70 123.5t184 54.5q171 0 282.5 -122.5t111.5 -311.5q0 -95 -30 -184t-87 -161.5t-150.5 -116.5t-210.5 -44q-106 0 -191.5 37.5t-152 116t-103 210.5t-36.5 310z" />
<glyph unicode="7" horiz-adv-x="917" d="M29 1401q0 40 15.5 67.5t45.5 41t63.5 19t79.5 5.5q83 0 257 -25.5t260 -25.5q83 0 159 16q2 -4 2 -16q0 -40 -25.5 -97.5t-65.5 -124t-89 -144.5t-98 -169t-89 -185.5t-65.5 -207t-25.5 -221.5q0 -77 13.5 -146.5t25.5 -101t32 -72.5q-60 -32 -121 -32 q-58 0 -100.5 31.5t-64.5 83t-32.5 104.5t-10.5 108q0 118 49.5 249t120.5 241t142 208.5t120.5 182.5t50.5 133q-161 39 -270 39q-37 0 -70 -5t-68 -17t-56 -38t-21 -63q0 -23 4 -35q-67 1 -117.5 60.5t-50.5 136.5z" />
<glyph unicode="8" horiz-adv-x="1083" d="M78 440q0 154 77 260t218 154q-109 61 -164 151t-55 189q0 66 25 127t72 109t122 77t166 29q174 0 279.5 -96t105.5 -238q0 -99 -53.5 -194t-155.5 -154q150 -50 221.5 -157.5t71.5 -245.5q0 -127 -55 -231t-164 -168t-254 -64q-208 0 -332.5 125.5t-124.5 326.5z M289 436q0 -70 27.5 -137t86 -115.5t134.5 -48.5q107 0 171 89.5t64 207.5q0 214 -246 340q-102 -35 -169.5 -131.5t-67.5 -204.5zM350 1217q0 -85 46.5 -163.5t140.5 -131.5q89 54 141.5 143.5t52.5 175.5q0 83 -49.5 142t-134.5 59q-88 0 -142.5 -65t-54.5 -160z" />
<glyph unicode="9" horiz-adv-x="1112" d="M63 1051q0 91 30.5 176.5t88 155t150.5 111.5t207 42q106 0 192 -37.5t153 -116t103.5 -210.5t36.5 -310q0 -175 -36.5 -330.5t-106.5 -278t-182 -194t-253 -71.5q-128 0 -212 84t-84 168q0 45 27 82.5t79 37.5q15 0 51 -8q-20 -27 -20 -71q0 -57 44 -99.5t111 -42.5 q107 0 191.5 102t129 270.5t44.5 369.5q0 87 -8 161.5t-28.5 144.5t-52 119.5t-81.5 79t-115 29.5q-72 0 -127.5 -36.5t-86 -93.5t-45.5 -117.5t-15 -118.5q0 -125 61 -202t176 -77q121 0 197 119q29 -37 29 -74q0 -69 -70 -123.5t-184 -54.5q-170 0 -282 117t-112 297z" />
<glyph unicode=":" horiz-adv-x="514" d="M121 297q0 56 39.5 96.5t95.5 40.5t96.5 -41t40.5 -96q0 -56 -40.5 -95.5t-96.5 -39.5q-57 0 -96 39t-39 96zM121 791q0 56 39.5 96.5t95.5 40.5t96.5 -41t40.5 -96q0 -57 -40.5 -96.5t-96.5 -39.5q-57 0 -96 39.5t-39 96.5z" />
<glyph unicode=";" horiz-adv-x="505" d="M113 791q0 56 39.5 96.5t95.5 40.5t96.5 -41t40.5 -96q0 -57 -40.5 -96.5t-96.5 -39.5q-57 0 -96 39.5t-39 96.5zM115 311q0 51 42.5 86t90.5 35q74 0 109.5 -45t35.5 -119q0 -100 -56.5 -209t-131.5 -147q-29 16 -29 49q0 28 22.5 84t22.5 80q0 34 -11 49.5t-26.5 20 t-31 11.5t-26.5 32t-11 73z" />
<glyph unicode="&#x3c;" horiz-adv-x="735" d="M55 461v110l563 308v-113l-448 -246l448 -196v-117z" />
<glyph unicode="=" horiz-adv-x="954" d="M129 272v164h696v-164h-696zM129 647v164h696v-164h-696z" />
<glyph unicode="&#x3e;" horiz-adv-x="735" d="M117 207v117l448 196l-448 246v113l563 -308v-110z" />
<glyph unicode="?" horiz-adv-x="849" d="M47 1149q0 51 20 99.5t61.5 91t115 68.5t170.5 26q189 0 289 -88.5t100 -227.5q0 -60 -20.5 -113.5t-53 -95t-72.5 -81t-80.5 -78t-74.5 -78.5t-56.5 -90.5t-25.5 -106.5h-94q-7 35 -7 57q0 62 30 121.5t72.5 110t85.5 102.5t73 117.5t30 136.5q0 114 -63.5 168.5 t-153.5 54.5q-75 0 -131.5 -46t-56.5 -117q0 -51 45 -100.5t127 -61.5q-17 -42 -52 -64t-79 -22q-77 0 -138 58t-61 159zM238 125q0 56 39.5 96.5t95.5 40.5q55 0 96 -41t41 -96q0 -56 -40.5 -95.5t-96.5 -39.5q-57 0 -96 39t-39 96z" />
<glyph unicode="@" horiz-adv-x="1157" d="M70 336q0 219 94.5 404.5t255 293t348.5 107.5q44 0 82.5 -6t85 -26.5t79 -53.5t55 -94t22.5 -142q0 -133 -47 -257t-130.5 -203.5t-179.5 -79.5q-70 0 -100 51q-52 -84 -133 -84q-58 0 -93.5 45.5t-35.5 134.5q0 91 37.5 197.5t103 184t135.5 77.5q53 0 80 -35l8 31 l113 -13l-92 -393q-15 -60 -15 -74q0 -41 31 -41q51 0 103 73t84 176.5t32 191.5q0 50 -11.5 92.5t-37 79.5t-72 58.5t-110.5 21.5q-91 0 -175 -42t-147 -112t-110.5 -158t-72 -182.5t-24.5 -181.5q0 -309 314 -309q107 0 192 45.5t119 119.5q47 -20 47 -88 q0 -98 -115 -160.5t-303 -62.5q-61 0 -117.5 12.5t-112 43t-96.5 76.5t-66 118.5t-25 163.5zM479 459q0 -23 5 -45.5t19.5 -42t37.5 -19.5q45 0 77 51q0 18 7 39l88 344q-19 31 -43 31q-50 0 -96.5 -69t-70.5 -151t-24 -138z" />
<glyph unicode="A" horiz-adv-x="1234" d="M-88 719q0 96 109 153.5t280 57.5q30 0 96 -4q53 129 115.5 235.5t135.5 192.5t157.5 134t171.5 48t164 -29v-1507h-226v737q-155 75 -378 101q-111 -395 -111 -725q0 -211 72 -346q-43 0 -78 6t-76.5 26.5t-70 55.5t-47.5 99t-19 150q0 147 42 347t116 395 q-122 -3 -203.5 -34t-81.5 -81q0 -8 2 -12q53 -16 53 -68q0 -34 -24.5 -49.5t-59.5 -15.5q-58 0 -98.5 32.5t-40.5 100.5zM557 905q222 -41 358 -106v639q-97 -6 -191 -153t-167 -380z" />
<glyph unicode="B" horiz-adv-x="1372" d="M35 1042q0 135 88.5 248.5t240 179.5t328.5 66q117 0 209 -30t148.5 -81t86 -115t29.5 -136q0 -78 -42 -155t-117 -130q160 -15 254 -126.5t94 -301.5q0 -58 -8.5 -119t-32 -130.5t-60.5 -122.5t-100 -88.5t-143 -35.5q-96 0 -162 46t-66 130q0 43 9 70 q27 -41 68.5 -60.5t82.5 -19.5q50 0 85 28t52.5 75.5t25 97.5t7.5 108q0 367 -283 367q-43 0 -133 -8v-799h-221v1313l221 30v-462h29q74 0 138 47.5t99 118t35 141.5q0 124 -84 199t-241 75q-90 0 -172 -26.5t-147.5 -77t-104.5 -133t-39 -185.5q0 -52 10 -97t20 -66 t25.5 -46t16.5 -26q-117 0 -181.5 59.5t-64.5 177.5z" />
<glyph unicode="C" horiz-adv-x="1034" d="M96 717q0 120 15 230t53.5 219.5t97.5 189.5t154.5 130t216.5 50q106 0 191 -34.5t138.5 -108t53.5 -176.5q0 -144 -109 -144q-62 0 -96 37q20 14 34.5 60.5t14.5 101.5q0 94 -46.5 142t-125.5 48q-90 0 -159 -60t-109.5 -162t-61 -225.5t-20.5 -262.5 q0 -326 110.5 -477.5t323.5 -151.5q133 0 221.5 59t143.5 187l51 -21q-52 -182 -195 -281.5t-340 -99.5q-267 0 -412 190t-145 560z" />
<glyph unicode="D" horiz-adv-x="1443" d="M37 1055q0 94 50 182t135 154t206 105.5t256 39.5q152 0 274 -44t202 -117.5t133.5 -175.5t76.5 -213t23 -234q0 -144 -30 -284.5t-81.5 -250t-125.5 -177t-157 -67.5q-124 0 -282 119v-92h-221v1313l221 30v-1183q71 -54 143 -54q76 0 134 58t90.5 154t48.5 205.5 t16 226.5q0 381 -114 546.5t-380 165.5q-125 0 -229.5 -49.5t-168.5 -147.5t-64 -227q0 -45 9 -83t20 -60.5t30 -43.5t28 -28t25 -18q-268 0 -268 250z" />
<glyph unicode="E" horiz-adv-x="915" d="M84 428q0 150 72.5 261t203.5 165q-184 117 -184 309q0 69 26 135t74.5 120.5t127.5 88t176 33.5q48 0 90.5 -7.5t84 -26.5t71.5 -47.5t48.5 -74.5t18.5 -104q0 -77 -31 -122.5t-82 -45.5q-56 0 -108 55q33 13 58.5 53.5t25.5 94.5q0 73 -48.5 110t-115.5 37 q-104 0 -167 -85.5t-63 -194.5q0 -24 3 -51.5t16.5 -72.5t36.5 -82t68 -71.5t106 -48.5q-133 -30 -207 -136.5t-74 -256.5q0 -154 81.5 -246t240.5 -92q140 0 242 70t141 174l51 -21q-36 -120 -122.5 -209t-196 -132.5t-228.5 -43.5q-112 0 -199 41t-137 109.5t-75 148 t-25 166.5z" />
<glyph unicode="F" horiz-adv-x="1134" d="M43 1073q0 100 33.5 182.5t100.5 146t178 99t257 35.5q70 0 186.5 -12.5t184.5 -12.5q108 0 182 25q-2 -55 -13 -94.5t-27 -62t-40.5 -35.5t-48 -17t-55.5 -4q-83 0 -272 37v-469h303v-121h-303v-770h-222v1397q-14 2 -38 2q-254 0 -254 -303q0 -103 26.5 -180.5 t65.5 -110.5q-244 0 -244 268z" />
<glyph unicode="G" horiz-adv-x="1214" d="M68 862q0 110 22 208.5t70.5 185.5t119.5 149.5t175 98.5t231 36q62 0 118.5 -8.5t112.5 -29.5t96.5 -53.5t65.5 -85.5t25 -120q0 -170 -133 -170q-23 0 -46 7.5t-34 14t-51 31.5q5 0 14 3.5t22 13.5t24.5 25t19.5 42.5t8 61.5q0 95 -59 142.5t-154 47.5 q-97 0 -175 -49.5t-126 -133.5t-73.5 -187.5t-25.5 -217.5q0 -143 38 -257.5t112.5 -182t173.5 -67.5q134 0 211 127t92 364l199 -2v-770q0 -246 -102 -378t-316 -132q-98 0 -170 28t-110.5 75.5t-56 99.5t-17.5 110q0 48 12 90t38 79t74 59t113 22q85 0 137 -36.5 t52 -106.5q0 -25 -11 -57q-53 57 -129 57q-68 0 -102.5 -37.5t-34.5 -99.5q0 -87 60 -145t145 -58q82 0 138.5 64t56.5 210v488q-107 -195 -343 -195q-227 0 -367 175.5t-140 463.5z" />
<glyph unicode="H" horiz-adv-x="1421" d="M37 1059q0 94 45.5 183t120 153t173.5 102.5t202 38.5q30 0 84 -4v-641h442v577l223 64v-1532h-223v770h-442v-770h-224v1427q-113 -45 -177 -144.5t-64 -235.5q0 -66 8.5 -113.5t25 -72.5t29.5 -36t31 -20q-114 0 -184 61.5t-70 192.5z" />
<glyph unicode="I" horiz-adv-x="825" d="M37 1053q0 127 86.5 239t227.5 178t294 66q32 0 86 -4v-1532h-225v1415q-139 -39 -218 -135t-79 -233q0 -98 24.5 -150t69.5 -92q-266 0 -266 248z" />
<glyph unicode="J" horiz-adv-x="886" d="M2 -115q0 37 7 71.5t24 68.5t43.5 58.5t68.5 40t95 15.5q86 0 130 -39.5t44 -128.5q0 -4 -1 -13.5t-1 -14.5q-54 51 -119 51q-56 0 -94.5 -42t-38.5 -114q0 -80 60.5 -129t137.5 -49q86 0 145.5 68t59.5 202v1487q-141 -34 -218 -132.5t-77 -246.5q0 -159 94 -233 q-126 0 -196 59t-70 178q0 134 88 249t229 180t296 65h84v-1454q0 -121 -21 -211t-69 -158t-131 -102.5t-201 -34.5q-189 0 -279 84t-90 225z" />
<glyph unicode="K" horiz-adv-x="1327" d="M35 1053q0 127 86.5 239t227.5 178t294 66q32 0 86 -4v-662l367 656h180l-459 -658q74 4 88 4q81 0 140.5 -18t95 -47t56 -75t27.5 -93t7 -109q0 -53 -5 -165.5t-5 -149.5q0 -88 31.5 -142.5t84.5 -72.5q-115 -35 -176 -35q-88 0 -134 57.5t-46 153.5q0 53 11.5 187 t11.5 186q0 246 -195 246q-31 0 -80 -11v-784h-225v1417q-144 -40 -225.5 -137.5t-81.5 -237.5q0 -76 17.5 -134t68.5 -103q-109 0 -178.5 60.5t-69.5 187.5z" />
<glyph unicode="L" horiz-adv-x="927" d="M37 1032q0 127 86.5 239.5t227.5 178.5t294 66q19 0 86 -5l-2 -6v-1464q56 -12 128 -44.5t128.5 -61.5t137 -52.5t159.5 -23.5q74 0 158 41q6 -27 6 -56q0 -88 -62 -149.5t-163 -61.5q-50 0 -106 24t-104 59.5t-105.5 77.5t-109.5 77.5t-116.5 59.5t-126.5 24 q-31 0 -47 -2v1442q-139 -39 -218 -135t-79 -234q0 -98 24.5 -150t69.5 -92q-266 0 -266 248z" />
<glyph unicode="M" horiz-adv-x="1540" d="M43 1038q0 129 82.5 246.5t202 184.5t233.5 67q71 0 125 -29l205 -1190l239 1190h234l115 -1507h-234l-82 1073l-217 -1073h-219l-182 1053l-166 -1053h-123l225 1434q-268 -61 -268 -392q0 -186 76 -237q-113 0 -179.5 58.5t-66.5 174.5z" />
<glyph unicode="N" horiz-adv-x="1452" d="M41 1069q0 84 35 167t94.5 150t148.5 108.5t189 41.5q75 0 143 -29l570 -1314v1339h137v-1532h-275l-514 1153v-1153h-137v1411q-239 -81 -239 -346q0 -77 18 -134.5t36 -80.5t44 -45q-128 0 -189 63.5t-61 200.5z" />
<glyph unicode="O" horiz-adv-x="1437" d="M37 1032q0 137 92 253t252.5 183.5t351.5 67.5q146 0 260 -43t186.5 -114.5t119.5 -172.5t66 -208.5t19 -231.5q0 -114 -16 -219.5t-55.5 -209.5t-99.5 -179.5t-156 -122.5t-217 -47q-84 0 -156.5 22t-136 72.5t-108.5 127t-71 192.5t-26 262q0 98 11 192t37.5 187 t66.5 162t102.5 112t140.5 43q50 0 105 -17q-65 -39 -114.5 -159.5t-73 -266t-23.5 -290.5q0 -51 3.5 -99t12 -106t26 -105t43 -87.5t65.5 -63.5t90 -23q80 0 140.5 57.5t95 155.5t51 214t16.5 247q0 155 -23.5 271t-62.5 186.5t-97 113.5t-118.5 58.5t-135.5 15.5 q-103 0 -191 -29t-155 -85t-105 -144.5t-38 -199.5q0 -157 63 -199q-112 0 -174.5 57.5t-62.5 169.5z" />
<glyph unicode="P" horiz-adv-x="1230" d="M37 1053q0 127 86.5 239t231 178t307.5 66q264 0 415.5 -124.5t151.5 -315.5q0 -70 -19 -141t-59.5 -138t-97 -118.5t-137.5 -83t-175 -31.5h-45v-584h-221v1313l221 30v-696q87 1 154.5 38t107 98t59 132.5t19.5 149.5q0 59 -7.5 108.5t-33.5 105.5t-68.5 94t-118 63.5 t-177.5 25.5q-188 0 -311 -110t-123 -303q0 -167 86 -244q-246 0 -246 248z" />
<glyph unicode="Q" horiz-adv-x="1488" d="M35 1030q0 138 97.5 254.5t262 184t355.5 67.5q146 0 258.5 -43t182 -114t113.5 -172t61 -205t17 -226q0 -210 -53.5 -389.5t-171.5 -284.5q79 -79 146.5 -120t158.5 -41q21 0 49 4q-17 -70 -54 -100.5t-103 -30.5q-44 0 -84.5 13.5t-68.5 31.5t-58.5 51t-48 56.5 t-45.5 64.5q-94 -43 -213 -43q-84 0 -155.5 22t-135.5 72.5t-108.5 127t-70.5 192.5t-26 262q0 98 11 192t37.5 187t66.5 162t102.5 112t140.5 43q50 0 105 -17q-65 -39 -114.5 -159t-73 -267.5t-23.5 -295.5q0 -223 55 -342q80 28 168 28q105 0 193 -65q65 91 96 245.5 t31 339.5q0 152 -21.5 266t-57.5 183.5t-91 112t-113.5 58t-132.5 15.5q-104 0 -195 -29.5t-162 -85.5t-112 -146t-41 -202q0 -41 6 -75.5t13.5 -54.5t17.5 -35t15.5 -20.5t10.5 -8.5q-112 0 -174.5 58t-62.5 167zM684 217q58 -74 147 -74q61 0 111 35q-65 68 -145 68 q-56 0 -113 -29z" />
<glyph unicode="R" horiz-adv-x="1335" d="M35 1053q0 94 50 183t134 155t201 105.5t244 39.5q243 0 383.5 -93t140.5 -245q0 -90 -49.5 -182.5t-139.5 -149.5q59 -9 102 -31.5t67.5 -52t39 -72.5t19 -84t4.5 -96q0 -53 -5 -165.5t-5 -149.5q0 -88 31.5 -142.5t84.5 -72.5q-115 -35 -176 -35q-88 0 -134 57.5 t-46 153.5q0 53 11.5 187t11.5 186q0 246 -195 246q-53 0 -115 -15v-780h-221v1313l221 30v-477h54q78 0 139 47.5t91 117.5t30 147q0 42 -9 80t-33.5 76.5t-63 65.5t-102.5 44.5t-147 17.5q-195 0 -319.5 -113.5t-124.5 -306.5q0 -40 2.5 -73t8 -56t10.5 -39.5t13 -29 t12.5 -18.5t12 -13t8.5 -8q-45 0 -86 13.5t-76.5 41.5t-57 78t-21.5 115z" />
<glyph unicode="S" horiz-adv-x="1009" d="M70 305q0 71 24 137.5t76.5 114t122.5 47.5q46 0 77.5 -26t55.5 -91q-46 -2 -80 -20t-51.5 -46.5t-25 -56.5t-7.5 -57q0 -69 42.5 -121t98.5 -75t113 -23q97 0 157 73.5t60 205.5q0 73 -20.5 130t-55 94.5t-80 67.5t-95 54l-99 48t-95 55t-80 70t-55 98.5t-20.5 135.5 q0 99 34 179.5t92 131t131.5 77t154.5 26.5q36 0 74 -4.5t91.5 -22t93 -45.5t68.5 -82.5t29 -126.5q0 -81 -33.5 -126.5t-89.5 -45.5q-48 0 -88 43q27 20 43.5 59.5t16.5 82.5q0 78 -50.5 136t-146.5 58q-104 0 -162.5 -70.5t-58.5 -177.5q0 -80 36 -139t93 -95t126 -68 t138.5 -69.5t126.5 -86.5t93 -132t36 -194q0 -96 -27 -173.5t-72 -129t-107 -86t-129.5 -49.5t-141.5 -15q-65 0 -126 11.5t-117.5 37.5t-98.5 64t-67 93.5t-25 123.5z" />
<glyph unicode="T" horiz-adv-x="1374" d="M41 1100q0 87 33.5 162.5t103 137.5t191 98t282.5 36q116 0 273.5 -23.5t236.5 -23.5q147 0 242 43q6 -38 6 -70q0 -87 -53.5 -128.5t-163.5 -41.5q-116 0 -336 49v-1339h-221v1372q-29 4 -82 4q-180 0 -267 -65.5t-87 -223.5q0 -187 84 -284q-110 0 -176 70.5t-66 226.5 z" />
<glyph unicode="U" horiz-adv-x="1576" d="M33 1051q0 128 87.5 240.5t233 178.5t308.5 66q42 0 96 -10v-1102q0 -72 14.5 -124.5t37 -82t57 -47t67 -22.5t74.5 -5t74.5 5t67.5 23t57.5 48t37.5 83t15 126v1104h225v-1110q0 -36 -5 -72.5t-19.5 -81t-37 -83t-61 -76t-88.5 -64t-123 -43t-160 -16.5q-119 0 -210 31 t-142 76.5t-82.5 107.5t-41 113.5t-9.5 105.5v1028q-153 -34 -237.5 -141.5t-84.5 -270.5q0 -44 6 -81.5t16.5 -62.5t19.5 -40.5t20 -29t12 -15.5q-91 0 -158 64t-67 180z" />
<glyph unicode="V" horiz-adv-x="1318" d="M39 1077q0 93 36 176t101.5 146t166.5 100t224 37q30 0 88 -8l273 -1364l284 1362h117l-344 -1526h-227l-305 1419q-64 0 -113.5 -18.5t-80.5 -48.5t-51 -73t-28 -88t-8 -97q0 -161 96 -287q-45 0 -83 12.5t-72.5 41t-54 84t-19.5 132.5z" />
<glyph unicode="W" horiz-adv-x="2039" d="M39 1077q0 93 36 176t101.5 146t166.5 100t224 37q30 0 88 -8l293 -1364l264 1362h152l293 -1362l264 1362h117l-324 -1526h-227l-246 1110l-235 -1110h-228l-325 1419q-74 0 -130 -27.5t-88 -74t-47.5 -103t-15.5 -120.5q0 -161 96 -287q-45 0 -83 12.5t-72.5 41t-54 84 t-19.5 132.5z" />
<glyph unicode="X" horiz-adv-x="1259" d="M41 1077q0 100 42 187t111.5 146.5t162 93.5t192.5 34q43 0 84 -6l264 -617l242 611h96l-287 -731l342 -795h-221l-268 616l-250 -616h-96l293 737l-314 725q-112 -30 -181 -144t-69 -255q0 -162 76 -238q-55 0 -92.5 11t-67.5 38t-44.5 77.5t-14.5 125.5z" />
<glyph unicode="Y" horiz-adv-x="1245" d="M41 1073q0 94 34.5 178t96.5 147.5t155 100.5t203 37q30 0 84 -4l297 -787l265 781h106l-328 -895v-631h-221v631l-321 831q-68 -18 -117 -58t-76 -93t-39 -108.5t-12 -117.5q0 -163 102 -280q-229 0 -229 268z" />
<glyph unicode="Z" horiz-adv-x="1001" d="M37 0l674 1444q-155 10 -293 10q-169 0 -174 -41q49 -32 49 -84q0 -34 -24.5 -60t-63.5 -26q-52 0 -97 40.5t-45 102.5q0 60 63 105t163 45h696l-672 -1427q26 0 120 -3.5t149 -3.5q218 0 235 43q-24 14 -37.5 38.5t-13.5 47.5q0 37 27.5 59.5t68.5 22.5q49 0 91 -33 t42 -90q0 -74 -61.5 -132t-157.5 -58h-739z" />
<glyph unicode="[" horiz-adv-x="583" d="M145 -512v2048h396v-127h-246v-1794h248v-127h-398z" />
<glyph unicode="\" horiz-adv-x="1032" d="M29 1536h102l870 -2048h-102z" />
<glyph unicode="]" horiz-adv-x="583" d="M41 -385h248v1794h-246v127h395v-2048h-397v127z" />
<glyph unicode="^" horiz-adv-x="862" d="M-131 1149l340 342h43l197 -342h-46l-176 207l-288 -207h-70z" />
<glyph unicode="_" horiz-adv-x="897" d="M90 0v143h717v-143h-717z" />
<glyph unicode="`" horiz-adv-x="411" d="M-262 1536h174l145 -387h-112z" />
<glyph unicode="a" d="M66 457q0 79 13.5 157t43.5 154.5t74 135t111 94.5t147 36q58 0 110.5 -25t79.5 -83v98h205v-696q0 -185 92 -185q101 0 148 224h75q-18 -98 -45 -170.5t-55 -111.5t-63 -62t-62 -29t-59 -6q-161 0 -199 194q-33 -84 -103 -139t-163 -55q-52 0 -100.5 15.5t-94.5 51 t-80 88.5t-54.5 133.5t-20.5 180.5zM281 471q0 -170 47 -249t139 -79q66 0 122 66.5t56 157.5v467q-15 36 -47 62t-74 26q-63 0 -112 -43t-76 -112t-41 -144.5t-14 -151.5z" />
<glyph unicode="b" horiz-adv-x="856" d="M94 367l2 1038l205 29v-486q77 80 195 80q47 0 91.5 -11.5t91 -42.5t81 -79t56.5 -127.5t22 -181.5q0 -119 -28.5 -225t-83 -190t-141.5 -133.5t-196 -49.5q-295 0 -295 379zM301 313q0 -94 29 -139t92 -45q75 0 129 59t79 150t25 201q0 164 -57.5 273.5t-157.5 109.5 q-76 0 -139 -70v-539z" />
<glyph unicode="c" horiz-adv-x="745" d="M72 465q0 61 7 121.5t22.5 126.5t44.5 122t69 101.5t101 71.5t135 26q129 0 196.5 -63t67.5 -183q0 -53 -21 -86.5t-59 -33.5q-47 0 -76 43q16 13 25.5 43.5t9.5 62.5q0 48 -30 78.5t-83 30.5t-92 -39.5t-59.5 -105.5t-30.5 -138t-10 -151q0 -84 12.5 -146.5t33.5 -100.5 t53 -61.5t65.5 -32t76.5 -8.5q107 0 183 55t129 169h69q-52 -157 -177 -268t-271 -111q-59 0 -113 15t-105.5 51t-89 89.5t-60.5 136t-23 185.5z" />
<glyph unicode="d" d="M66 457q0 79 13.5 157t43.5 154.5t74 135t111 94.5t147 36q58 0 110.5 -25t79.5 -83v479l205 29v-1106q0 -185 92 -185q101 0 148 224h75q-18 -98 -45 -170.5t-55 -111.5t-63 -62t-62 -29t-59 -6q-161 0 -199 194q-33 -84 -103 -139t-163 -55q-52 0 -100.5 15.5t-94.5 51 t-80 88.5t-54.5 133.5t-20.5 180.5zM281 471q0 -170 47 -249t139 -79q66 0 122 66.5t56 157.5v467q-15 36 -47 62t-74 26q-63 0 -112 -43t-76 -112t-41 -144.5t-14 -151.5z" />
<glyph unicode="e" horiz-adv-x="753" d="M72 461q0 73 12 148t41 152.5t72.5 137t112 97.5t153.5 38q272 0 272 -266q0 -143 -118.5 -239t-325.5 -119q14 -151 75 -209t160 -58q103 0 187.5 54.5t136.5 169.5h65q-54 -156 -187.5 -267.5t-285.5 -111.5q-74 0 -137.5 25.5t-117 79t-84.5 148t-31 220.5zM289 489 q145 23 230 103.5t85 195.5q0 146 -102 146q-68 0 -118 -71t-72.5 -169.5t-22.5 -204.5z" />
<glyph unicode="f" horiz-adv-x="489" d="M-172 -313q0 49 22.5 93.5t62.5 79.5t84 62t97 49v1209q0 172 82 264t217 92q127 0 206 -78.5t79 -228.5h-80q-13 88 -46 132t-103 44q-47 0 -77.5 -20t-46 -61t-21 -87.5t-5.5 -114.5v-98h166v-72h-166v-1116q0 -104 -20 -175.5t-58 -107.5t-80.5 -50.5t-97.5 -14.5 q-215 0 -215 199zM-92 -307q0 -41 27 -70t67 -29q29 0 47.5 16t28 49.5t13 73.5t3.5 99v64q-90 -43 -138 -97t-48 -106z" />
<glyph unicode="g" d="M66 477q0 76 13.5 152t43.5 149.5t74 130t111 91t147 34.5q58 0 110.5 -25t79.5 -83v98h205v-981q58 19 93 38t67 54.5t50.5 91t29.5 140.5h75q-13 -87 -33 -148.5t-43.5 -101.5t-62.5 -68.5t-77 -44.5t-99 -35v-131q0 -180 -71.5 -265t-184.5 -85q-99 0 -158 57.5 t-59 143.5q0 175 268 286v177q-40 -56 -99 -89.5t-130 -33.5q-66 0 -125.5 24.5t-111 75t-82.5 140.5t-31 208zM281 492q0 -160 47 -234t139 -74q65 0 121.5 63t56.5 150v437q-15 36 -47 62t-74 26q-63 0 -112 -41t-76 -106.5t-41 -138t-14 -144.5zM457 -303 q0 -46 26.5 -74.5t71.5 -28.5q52 0 71 38.5t19 117.5v144q-100 -45 -144 -92t-44 -105z" />
<glyph unicode="h" horiz-adv-x="956" d="M94 0v1405l205 29v-566q28 53 61 88.5t67 51t60.5 21t57.5 5.5q71 0 124 -23.5t82 -59t46.5 -87.5t22.5 -96.5t5 -99.5q0 -47 -6 -171t-6 -178q0 -176 92 -176q101 0 148 224h75q-17 -98 -44.5 -170.5t-55.5 -111.5t-62.5 -62t-61 -29t-56.5 -6q-121 0 -180.5 88.5 t-59.5 224.5q0 25 3 176.5t3 179.5q0 222 -131 222q-65 0 -110 -53.5t-74 -170.5v-655h-205z" />
<glyph unicode="i" horiz-adv-x="444" d="M59 1319q0 56 39.5 96.5t96.5 40.5q55 0 96 -41t41 -96q0 -56 -40.5 -95.5t-96.5 -39.5q-57 0 -96.5 39t-39.5 96zM96 285v739h205v-696q0 -185 92 -185q101 0 148 224h75q-18 -98 -45 -170.5t-55 -111.5t-63 -62t-62 -29t-59 -6q-67 0 -115.5 27t-73.5 72.5t-36 94 t-11 103.5z" />
<glyph unicode="j" horiz-adv-x="444" d="M-172 -311q0 175 268 286v1049h205v-981q58 19 93 38t67 54.5t50.5 91t29.5 140.5h75q-13 -87 -33 -148.5t-43.5 -101.5t-62.5 -68.5t-77 -44.5t-99 -35v-131q0 -180 -71.5 -265t-184.5 -85q-99 0 -158 57.5t-59 143.5zM-92 -303q0 -46 26.5 -74.5t71.5 -28.5 q52 0 71 38.5t19 117.5v144q-100 -45 -144 -92t-44 -105zM59 1319q0 56 39.5 96.5t96.5 40.5q55 0 96 -41t41 -96q0 -56 -40.5 -95.5t-96.5 -39.5q-57 0 -96.5 39t-39.5 96z" />
<glyph unicode="k" horiz-adv-x="935" d="M94 0v1405l205 29v-744l352 334h199l-342 -276h20q279 0 279 -320q0 -30 -3 -97t-3 -81q0 -107 80 -107q54 0 91 54t62 170h76q-18 -101 -46.5 -174.5t-56.5 -111.5t-64 -60.5t-61.5 -27.5t-56.5 -5q-118 0 -174.5 65t-56.5 168q0 11 1 94t1 97q0 180 -129 180 q-56 0 -97 -36.5t-71 -121.5v-434h-205z" />
<glyph unicode="l" horiz-adv-x="442" d="M96 285v1120l205 29v-1106q0 -185 92 -185q101 0 148 224h75q-18 -98 -45 -170.5t-55 -111.5t-63 -62t-62 -29t-59 -6q-67 0 -115.5 27t-73.5 72.5t-36 94t-11 103.5z" />
<glyph unicode="m" horiz-adv-x="1419" d="M94 0v1024h205v-141q25 47 54 78.5t59.5 46.5t56 20.5t55.5 5.5q183 0 242 -182q27 58 58.5 97t64 56t57.5 23t55 6q71 0 124 -23.5t82.5 -59t47 -87t22.5 -97t5 -99.5q0 -47 -6 -171t-6 -178q0 -176 92 -176q100 0 147 224h76q-17 -98 -44.5 -170.5t-55.5 -111.5 t-62.5 -62t-61 -29t-56.5 -6q-121 0 -180.5 88.5t-59.5 224.5q0 25 3 176.5t3 179.5q0 222 -131 222q-64 0 -103.5 -53t-56.5 -171v-655h-205v684q0 42 -4 72t-14.5 60.5t-35 46.5t-60.5 16q-62 0 -97.5 -52t-64.5 -172v-655h-205z" />
<glyph unicode="n" horiz-adv-x="956" d="M94 0v1024h205v-156q28 53 61 88.5t67 51t60.5 21t57.5 5.5q71 0 124 -23.5t82 -59t46.5 -87.5t22.5 -96.5t5 -99.5q0 -47 -6 -171t-6 -178q0 -176 92 -176q101 0 148 224h75q-17 -98 -44.5 -170.5t-55.5 -111.5t-62.5 -62t-61 -29t-56.5 -6q-121 0 -180.5 88.5 t-59.5 224.5q0 25 3 176.5t3 179.5q0 222 -131 222q-65 0 -110 -53.5t-74 -170.5v-655h-205z" />
<glyph unicode="o" horiz-adv-x="858" d="M70 465q0 77 11.5 152t41 151.5t73 134.5t114.5 94.5t159 36.5q78 0 136.5 -24t95.5 -69.5t58 -101.5t32 -128h12q81 0 153.5 33.5t126.5 89.5l31 -56q-38 -63 -125.5 -107.5t-187.5 -60.5q0 -13 1 -41t1 -43q0 -253 -92.5 -395.5t-257.5 -142.5q-57 0 -110 15.5 t-103.5 51.5t-87.5 89.5t-59.5 136t-22.5 184.5zM291 473q0 -95 17.5 -163t47.5 -102.5t62.5 -49.5t70.5 -15q105 0 158 106.5t53 305.5q0 33 -2 49q-59 3 -84.5 27t-25.5 76q0 46 20.5 66t61.5 22q-45 127 -148 127q-61 0 -107.5 -41t-72.5 -109t-38.5 -143.5t-12.5 -155.5 z" />
<glyph unicode="p" horiz-adv-x="866" d="M94 -512v1612h207v-158q89 92 213 92q151 0 245.5 -129t94.5 -379q0 -251 -96 -394.5t-256 -143.5q-122 0 -201 98v-547zM301 188q55 -69 135 -69q98 0 155.5 118.5t57.5 297.5q0 102 -19 176.5t-51 114t-66 57.5t-71 18q-88 0 -141 -98v-615z" />
<glyph unicode="q" horiz-adv-x="911" d="M66 457q0 79 13.5 157t43.5 154.5t74 135t111 94.5t147 36q58 0 109.5 -24t78.5 -80v94h207v-1485l-207 -51v621q-40 -56 -98.5 -88.5t-128.5 -32.5q-52 0 -100.5 15.5t-94.5 51t-80 88.5t-54.5 133.5t-20.5 180.5zM281 471q0 -170 47 -249t139 -79q60 0 113.5 57 t62.5 138v502q-15 34 -46.5 58t-72.5 24q-63 0 -112 -43t-76 -112t-41 -144.5t-14 -151.5z" />
<glyph unicode="r" horiz-adv-x="688" d="M94 0v1024h205v-172q29 44 49 70t50.5 55.5t65.5 43t77 13.5q66 0 100.5 -34.5t34.5 -88.5q0 -55 -30.5 -80.5t-63.5 -25.5q-22 0 -53 25.5t-62 25.5q-70 0 -168 -102v-754h-205z" />
<glyph unicode="s" horiz-adv-x="700" d="M49 291q0 52 21 91.5t53 57.5q4 11 35 97.5t38.5 109t30.5 94t32 109t20 93t16 104.5l207 40q29 -118 65.5 -260t50.5 -196.5t29.5 -128t19.5 -121.5t5 -111q52 36 125 97h86q-53 -74 -112 -127.5t-132 -104.5q-42 -73 -125 -110t-160 -37q-69 0 -123.5 19t-88 49t-55 71 t-30 81t-8.5 83zM145 293q32 -152 166 -152q67 0 105.5 35.5t38.5 108.5q0 60 -8 115.5t-20 102t-38 151.5t-49 214q-7 -68 -26.5 -139t-49.5 -159t-43 -136q45 -29 45 -90q0 -37 -19.5 -58.5t-45.5 -21.5q-33 0 -56 29z" />
<glyph unicode="t" horiz-adv-x="483" d="M27 952v72h69v283l205 28v-311h158v-72h-158v-624q0 -185 96 -185q58 0 107.5 57.5t77.5 166.5h75q-26 -98 -59 -170t-64.5 -111.5t-69 -62.5t-65.5 -29t-61 -6q-70 0 -120 26.5t-75.5 72.5t-36 94t-10.5 104v667h-69z" />
<glyph unicode="u" horiz-adv-x="929" d="M94 305v719h205v-696q0 -185 123 -185q63 0 111.5 62t48.5 162v657h204v-696q0 -185 93 -185q100 0 147 224h76q-17 -98 -44.5 -170.5t-55.5 -111.5t-63.5 -62t-62.5 -29t-59 -6q-87 0 -134.5 53.5t-64.5 138.5q-37 -96 -99.5 -144t-135.5 -48q-130 0 -209.5 76 t-79.5 241z" />
<glyph unicode="v" horiz-adv-x="817" d="M94 268v756h205v-696q0 -185 119 -185q60 0 106 45t72 121t38.5 163t12.5 183q0 127 -18 215q-14 -16 -54 -16q-46 0 -72 33.5t-26 75.5t28 73t77 31q77 0 124.5 -91t47.5 -286q0 -97 -12 -192t-40.5 -188.5t-70.5 -164t-108 -114t-148 -43.5q-113 0 -197 75t-84 205z " />
<glyph unicode="w" horiz-adv-x="1275" d="M94 305v719h205v-696q0 -185 123 -185q63 0 111.5 62t48.5 162v657h204v-696q0 -185 119 -185q60 0 106 45t72 121t39 163.5t13 182.5q0 122 -19 215q-14 -16 -53 -16q-46 0 -72 33.5t-26 75.5q0 43 28 73.5t76 30.5q77 0 124.5 -91t47.5 -286q0 -97 -12 -192 t-40.5 -188.5t-70.5 -164t-108 -114t-148 -43.5t-153 41.5t-105 117.5q-38 -80 -96.5 -119.5t-124.5 -39.5q-130 0 -209.5 76t-79.5 241z" />
<glyph unicode="x" horiz-adv-x="1019" d="M92 362q7 36 17.5 98.5t18.5 111t21.5 110.5t27.5 109t36.5 95t49 78.5t64 50t81.5 19.5q84 0 136 -61.5t95 -181.5l82 -228q156 213 156 342q0 20 -3 35q-19 -8 -43 -8q-46 0 -79 30t-33 78q0 45 30.5 76t77.5 31q62 0 102 -54.5t40 -148.5q0 -103 -52 -210.5 t-163 -260.5l41 -108q41 -113 77.5 -167.5t85.5 -54.5q58 0 106 68.5t54 148.5h62q-7 -91 -33 -161t-58.5 -108.5t-74 -63t-73.5 -32t-62 -7.5q-91 0 -157.5 81.5t-135.5 268.5l-215 -338h-140l318 442l-90 254q-38 105 -62 145t-53 40q-114 0 -176 -519h-76z" />
<glyph unicode="y" horiz-adv-x="929" d="M94 305v719h205v-696q0 -185 123 -185q62 0 111 58.5t49 154.5v668h204v-981q58 19 93 38t67 54.5t50.5 91t29.5 140.5h76q-11 -72 -25.5 -126.5t-36 -94t-44 -66.5t-58 -48t-68.5 -34.5t-84 -28.5v-131q0 -180 -71.5 -265t-184.5 -85q-99 0 -158 57.5t-59 143.5 q0 175 269 286v129q-77 -116 -199 -116q-130 0 -209.5 76t-79.5 241zM393 -303q0 -46 27 -74.5t72 -28.5q52 0 71 38.5t19 117.5v144q-100 -45 -144.5 -92t-44.5 -105z" />
<glyph unicode="z" horiz-adv-x="847" d="M125 903q0 121 211 121h508l-438 -881q210 -12 264 -12q36 0 58.5 12t25.5 31q-15 4 -26 21t-11 32q0 31 25 49.5t59 18.5q48 0 83.5 -32t35.5 -89q0 -65 -66 -119.5t-168 -54.5h-536l442 913h-176q-117 0 -117 -28q0 -13 17.5 -33t17.5 -33q0 -23 -27 -43t-65 -20 q-55 0 -86 42.5t-31 104.5z" />
<glyph unicode="{" horiz-adv-x="526" d="M72 463v115q44 -7 63 -7q107 0 107 138q0 52 -17.5 124t-38 133.5t-38 137.5t-17.5 135q0 41 7.5 80.5t26 79.5t46 70t72 48.5t100.5 18.5q47 0 90 -12v-97q-10 1 -30.5 5t-30.5 4q-164 0 -164 -203q0 -101 55 -294.5t55 -274.5q0 -87 -41 -144q41 -57 41 -143 q0 -81 -55 -275t-55 -295q0 -202 164 -202q10 0 30.5 3.5t30.5 4.5v-96q-47 -13 -90 -13q-56 0 -100.5 18.5t-72 48.5t-46 70t-26 79.5t-7.5 80.5q0 91 55.5 273t55.5 258q0 137 -107 137q-25 0 -63 -6z" />
<glyph unicode="|" horiz-adv-x="399" d="M145 -512v2050h109v-2050h-109z" />
<glyph unicode="}" horiz-adv-x="526" d="M53 1427v97q43 12 90 12q56 0 100.5 -18.5t72 -48.5t46 -70t26 -79.5t7.5 -80.5q0 -74 -27.5 -174t-55 -196t-27.5 -160q0 -138 106 -138q20 0 64 7v-115q-38 6 -64 6q-106 0 -106 -137q0 -76 55 -258.5t55 -272.5q0 -41 -7.5 -80.5t-26 -79.5t-46 -70t-72 -48.5 t-100.5 -18.5q-41 0 -88 13v96q10 -1 30 -4.5t30 -3.5q164 0 164 202q0 65 -17.5 147.5t-38 148t-38 142t-17.5 132.5q0 86 41 143q-41 57 -41 144q0 69 28 171t55.5 209t27.5 189q0 203 -164 203q-10 0 -31 -4t-31 -5z" />
<glyph unicode="~" horiz-adv-x="821" d="M63 1212q26 89 95 135t174 46q71 0 169.5 -30t147.5 -30q79 0 109 41h10q-2 -68 -79.5 -126t-178.5 -58q-63 0 -170 33.5t-154 33.5q-69 0 -112 -49z" />
<glyph unicode="&#xa1;" horiz-adv-x="462" d="M92 801q0 56 40.5 95.5t96.5 39.5q57 0 96.5 -39t39.5 -96q0 -56 -39.5 -96.5t-96.5 -40.5q-55 0 -96 41t-41 96zM117 -508l63 961h109l57 -961h-229z" />
<glyph unicode="&#xa2;" horiz-adv-x="763" d="M57 721q0 61 9 122.5t32.5 127.5t58.5 118t93 90.5t131 49.5l-4 241h119l-7 -241q93 -11 148 -66.5t55 -150.5q0 -47 -18 -78t-53 -31q-39 0 -70 39q33 23 33 96q0 38 -28.5 67.5t-68.5 37.5l-16 -711h12q122 0 215 90q0 -56 -20 -99t-54.5 -68.5t-72.5 -39.5t-82 -20 l-8 -350h-55l-7 348q-53 3 -100.5 18.5t-92.5 49t-77.5 81t-52 119.5t-19.5 160zM252 745q0 -133 31 -206t112 -97l-12 676q-64 -44 -97.5 -150.5t-33.5 -222.5z" />
<glyph unicode="&#xa3;" horiz-adv-x="966" d="M43 702q42 140 178 170l19 601l198 45l-20 -648q24 -6 67 -19.5t76.5 -20.5t67.5 -7q78 0 108 41h11q-2 -68 -80 -126t-179 -58q-42 0 -75 8l-19 -569q54 17 123 21.5t121 4t128.5 22.5t154.5 75q2 -18 2 -52q0 -90 -32.5 -140t-90.5 -50h-604l20 741q-28 7 -51 7 q-69 0 -113 -50z" />
<glyph unicode="&#xa4;" horiz-adv-x="935" d="M92 1008l78 73l115 -114q83 61 186 61q101 0 182 -59l115 114l74 -73l-113 -113q62 -84 62 -188q0 -103 -62 -187l113 -112l-74 -74l-113 113q-83 -60 -184 -60q-104 0 -188 62l-115 -115l-74 74l115 114q-59 81 -59 183q0 103 59 184zM233 709q0 -98 70 -168t168 -70 t168 70t70 168t-70 167.5t-168 69.5t-168 -69.5t-70 -167.5z" />
<glyph unicode="&#xa5;" horiz-adv-x="1026" d="M43 1526h229l299 -785l275 785h106l-338 -897h318v-72h-318v-164h316v-71h-316v-322h-221v322h-254v71h254v164h-254v72h254z" />
<glyph unicode="&#xa6;" horiz-adv-x="399" d="M145 455h109v-967h-109v967zM145 616v922h109v-922h-109z" />
<glyph unicode="&#xa7;" horiz-adv-x="1062" d="M76 182q0 106 52 169t120 63q40 0 73 -25t44 -74q-66 -6 -90.5 -36t-24.5 -89q0 -111 60.5 -167t152.5 -56q36 0 68.5 9.5t63.5 31t49 62t18 96.5q0 71 -31.5 131.5t-82.5 104t-112 83.5t-122 78.5t-112 79t-82.5 95.5t-31.5 120q0 77 42 139t112 95q-31 67 -31 143 q0 149 108 225t283 76q22 0 42.5 -1.5t58 -7.5t67.5 -21.5t59.5 -38.5t46.5 -63.5t17 -92.5q0 -58 -22.5 -90.5t-65.5 -32.5q-42 0 -80 33q22 14 34.5 46t12.5 66q0 61 -44 104.5t-124 43.5q-94 0 -150.5 -59.5t-56.5 -145.5q0 -49 21 -91.5t56.5 -75t82 -62.5t97.5 -58.5 t101.5 -59t97 -67.5t82 -80t56.5 -101t21 -126q0 -101 -44.5 -176.5t-127.5 -97.5q8 -46 8 -74q0 -149 -102 -233.5t-283 -84.5q-33 0 -65.5 3.5t-80.5 12.5t-87.5 29.5t-75.5 51t-57 81.5t-21 115zM238 899q0 -41 48 -85t122.5 -89t153 -95t151.5 -123.5t106 -154.5 q62 39 62 129q0 73 -44 134.5t-116 108.5t-148.5 89t-158 97.5t-127.5 113.5q-23 -20 -34.5 -45.5t-13 -40.5t-1.5 -39z" />
<glyph unicode="&#xa8;" horiz-adv-x="802" d="M-133 1321q0 45 31.5 78t76.5 33q44 0 77.5 -33.5t33.5 -77.5q0 -45 -33 -77t-78 -32q-46 0 -77 31.5t-31 77.5zM193 1321q0 45 31.5 78t76.5 33q44 0 77.5 -33.5t33.5 -77.5q0 -45 -33 -77t-78 -32q-46 0 -77 31.5t-31 77.5z" />
<glyph unicode="&#xa9;" horiz-adv-x="1134" d="M72 678q0 108 39.5 205.5t106.5 167t158 110.5t191 41q133 0 247 -68.5t181.5 -189t67.5 -264.5t-67.5 -265t-181.5 -190t-247 -69q-100 0 -191 41t-158 110.5t-106.5 166.5t-39.5 204zM125 678q0 -201 131 -340t315 -139q183 0 314 139t131 340t-131 340t-314 139 q-184 0 -315 -139t-131 -340zM279 688q0 132 93 217.5t212 85.5q84 0 153.5 -49.5t98.5 -144.5l-76 -29q-13 63 -64 98t-116 35q-97 0 -154 -63.5t-57 -147.5q0 -93 56.5 -162t152.5 -69q50 0 100 25.5t82 74.5l69 -47q-42 -64 -115 -101.5t-149 -37.5q-123 0 -204.5 92.5 t-81.5 222.5z" />
<glyph unicode="&#xaa;" horiz-adv-x="667" d="M82 1217q0 53 12 105t36.5 99t69.5 76t103 29q30 0 58.5 -14t44.5 -42v46h112v-371q0 -101 49 -101q18 0 33 5q-3 -95 -80 -95q-90 0 -102 95q-22 -42 -58.5 -68.5t-83.5 -26.5q-77 0 -135.5 66t-58.5 197zM203 1229q0 -187 108 -187q36 0 65.5 37t29.5 88v252 q-22 43 -66 43q-49 0 -81.5 -39.5t-44 -89t-11.5 -104.5z" />
<glyph unicode="&#xab;" horiz-adv-x="1052" d="M43 520l358 400l105 -93l-293 -309l342 -287l-63 -90zM469 520l358 400l105 -93l-293 -309l342 -287l-63 -90z" />
<glyph unicode="&#xac;" horiz-adv-x="927" d="M84 473v143h717l4 -512h-166v369h-555z" />
<glyph unicode="&#xad;" horiz-adv-x="653" d="M121 473v143h411v-143h-411z" />
<glyph unicode="&#xae;" horiz-adv-x="1134" d="M72 684q0 108 39.5 205.5t106.5 167t158 110.5t191 41q133 0 247 -68.5t181.5 -189t67.5 -264.5t-67.5 -265t-181.5 -190t-247 -69q-100 0 -191 41t-158 110.5t-106.5 166.5t-39.5 204zM125 684q0 -201 131 -340t315 -139q183 0 314 139t131 340t-131 340t-314 139 q-184 0 -315 -139t-131 -340zM379 393l2 596h201q204 0 204 -172q0 -62 -30.5 -102.5t-85.5 -55.5l129 -256l-76 -12l-127 254h-143v-252h-74zM453 717h135q52 0 88.5 24t36.5 76q0 94 -129 94h-131v-194z" />
<glyph unicode="&#xb0;" horiz-adv-x="649" d="M86 1104q0 149 65 241.5t179 92.5q65 0 112.5 -27.5t72.5 -76.5t36.5 -104t11.5 -120q0 -50 -8 -97.5t-26 -92.5t-45 -79t-69 -54.5t-93 -20.5q-108 0 -172 85t-64 253zM201 1096q0 -36 4.5 -71.5t17 -79.5t42 -71.5t71.5 -27.5q59 0 91 74.5t32 189.5q0 141 -34.5 201.5 t-86.5 60.5q-63 0 -100 -78.5t-37 -197.5z" />
<glyph unicode="&#xb1;" horiz-adv-x="976" d="M109 158v143h753v-143h-753zM115 719v143h291v250h167v-250h293v-143h-295v-293h-165v293h-291z" />
<glyph unicode="&#xb2;" horiz-adv-x="704" d="M84 1378q0 63 57 109.5t178 46.5q242 0 242 -207q0 -61 -21 -115.5t-53 -93t-72.5 -77.5t-77.5 -69t-70 -68t-48 -73q45 0 124 -12t112 -12q98 0 159 82q1 -5 6.5 -18.5t9 -29.5t3.5 -36q0 -53 -27.5 -81t-93.5 -28q-45 0 -142 18.5t-130 18.5q-61 0 -111 -31 q-18 40 -18 68q0 57 33.5 114.5t80.5 107.5t94.5 101t81 114.5t33.5 129.5q0 70 -34.5 107t-88.5 37q-49 0 -79.5 -27t-30.5 -65q0 -53 53 -89q-40 -32 -80 -32q-38 0 -64 32.5t-26 77.5z" />
<glyph unicode="&#xb3;" horiz-adv-x="704" d="M84 909q0 67 31 103.5t78 36.5q51 0 83 -50q-40 -10 -59.5 -39t-19.5 -63q0 -63 38.5 -98t94.5 -35q65 0 113.5 49t48.5 139q0 42 -14 76.5t-31.5 56t-47.5 40t-48.5 26.5t-47.5 18q77 20 113.5 74.5t36.5 114.5q0 62 -38 94.5t-89 32.5q-47 0 -81 -26t-34 -68 q0 -56 51 -80q-34 -37 -74 -37q-37 0 -60.5 32t-23.5 76q0 71 68 112.5t160 41.5q94 0 161.5 -45.5t67.5 -130.5q0 -56 -27 -104.5t-85 -77.5q98 -27 141 -88t43 -129q0 -125 -85.5 -193t-201.5 -68q-107 0 -184.5 55.5t-77.5 153.5z" />
<glyph unicode="&#xb4;" horiz-adv-x="587" d="M-16 1149l104 387h174l-166 -387h-112z" />
<glyph unicode="&#xb5;" horiz-adv-x="929" d="M94 -340v1364h205v-696q0 -185 123 -185q63 0 111.5 62t48.5 162v657h204v-696q0 -185 93 -185q100 0 147 224h76q-17 -98 -44.5 -170.5t-55.5 -111.5t-63.5 -62t-62.5 -29t-59 -6q-87 0 -134.5 53.5t-64.5 138.5q-37 -96 -99.5 -144t-135.5 -48q-39 0 -84 10v-289z" />
<glyph unicode="&#xb6;" horiz-adv-x="1058" d="M45 1104q0 83 25 158.5t73.5 137t129.5 98t184 36.5q74 0 140 -15.5t126.5 -52t104 -91t69 -137t25.5 -185.5v-1219h-150v789q-68 -24 -139 -33v-756h-150v752q-133 16 -234.5 94.5t-152.5 189.5t-51 234z" />
<glyph unicode="&#xb7;" horiz-adv-x="518" d="M90 547q0 71 49 120.5t119 49.5t120 -49.5t50 -120.5q0 -70 -49.5 -119t-120.5 -49q-70 0 -119 48.5t-49 119.5z" />
<glyph unicode="&#xb8;" horiz-adv-x="464" d="M82 -389q11 30 26.5 47.5t41.5 17.5t81 -30.5t84 -30.5q37 0 60.5 24.5t23.5 55.5q0 39 -32.5 72.5t-90.5 33.5q-29 0 -54.5 -9t-34 -15t-27.5 -21l43 303l82 -47l-27 -147q62 16 104 16q76 0 115 -36.5t39 -106.5q0 -85 -60 -134.5t-143 -49.5q-70 0 -120 14t-111 43z " />
<glyph unicode="&#xb9;" horiz-adv-x="399" d="M51 1397l4 51q47 0 111 22t106 64v-827h-108v690h-113z" />
<glyph unicode="&#xba;" horiz-adv-x="616" d="M80 1214q0 52 11 102.5t35.5 100.5t71.5 80.5t111 30.5q127 0 168 -150q23 0 42 19t26 39l20 -25q-18 -87 -73 -113q2 -20 2 -63q0 -124 -48 -203.5t-135 -79.5q-46 0 -85 13.5t-73 42.5t-53.5 81.5t-19.5 124.5zM201 1219q0 -94 33 -137.5t104 -43.5q42 0 69 58t27 155 q0 6 -1 18.5t-1 18.5q-31 0 -43 15.5t-12 46.5q0 42 37 53q-27 63 -86 63q-42 0 -72 -41t-42.5 -95t-12.5 -111z" />
<glyph unicode="&#xbb;" horiz-adv-x="1058" d="M74 829l63 91l449 -379l-359 -400l-104 92l293 310zM500 829l63 91l449 -379l-359 -400l-104 92l293 310z" />
<glyph unicode="&#xbc;" horiz-adv-x="1351" d="M45 1311l4 51q47 0 111 22t106 64v-827h-108v690h-113zM299 0l506 1536h123l-506 -1536h-123zM791 305q4 36 51 174.5t47 216.5q0 31 -4 55.5t-7.5 34.5t-11 26t-8.5 17q43 0 86 -40.5t43 -106.5q0 -67 -53.5 -175t-61.5 -138h234v444l121 16v-460h76l-7 -64h-69v-305 h-121v305h-315z" />
<glyph unicode="&#xbd;" horiz-adv-x="1372" d="M45 1311l4 51q47 0 111 22t106 64v-827h-108v690h-113zM274 0l506 1536h123l-506 -1536h-123zM778 682q0 63 57.5 109.5t178.5 46.5q241 0 241 -207q0 -61 -21 -115.5t-53 -93t-72.5 -77.5t-77.5 -69t-70 -68t-48 -73q45 0 124 -12t112 -12q99 0 160 82q1 -5 6 -18.5 t8.5 -29.5t3.5 -36q0 -53 -27.5 -81t-93.5 -28q-45 0 -142 18.5t-130 18.5q-63 0 -113 -31q-16 26 -16 68q0 57 33.5 114.5t81 107.5t94.5 101t80.5 114.5t33.5 129.5q0 70 -34 106.5t-88 36.5q-49 0 -80 -27t-31 -65q0 -52 53 -88q-42 -33 -80 -33t-64 33t-26 78z" />
<glyph unicode="&#xbe;" horiz-adv-x="1630" d="M59 821q0 67 31 103.5t78 36.5q52 0 84 -50q-40 -10 -60 -39t-20 -63q0 -63 38.5 -98t94.5 -35q65 0 113.5 49t48.5 139q0 42 -13.5 76.5t-31.5 56t-47.5 40t-48 26.5t-47.5 18q77 20 113 74.5t36 114.5q0 62 -38 94.5t-89 32.5q-47 0 -81 -26t-34 -68q0 -56 52 -80 q-34 -37 -74 -37q-37 0 -60.5 32t-23.5 76q0 71 67.5 112.5t159.5 41.5q94 0 162 -45.5t68 -130.5q0 -56 -27.5 -104.5t-85.5 -77.5q98 -27 141 -88.5t43 -129.5q0 -125 -85 -192.5t-201 -67.5q-107 0 -185 55.5t-78 153.5zM539 0l505 1536h123l-505 -1536h-123zM1073 305 q4 36 51 174.5t47 216.5q0 25 -2 45t-6 34t-7 22t-8.5 18.5t-6.5 13.5q43 0 86 -40.5t43 -106.5q0 -67 -53.5 -175t-61.5 -138h234v444l120 16v-460h76l-6 -64h-70v-305h-120v305h-316z" />
<glyph unicode="&#xbf;" horiz-adv-x="845" d="M61 -190q0 60 20.5 113.5t53 95t72.5 81t80.5 78t74.5 78.5t56.5 90.5t25.5 106.5h95q6 -30 6 -58q0 -62 -30 -121.5t-72.5 -110t-85.5 -102.5t-73 -117.5t-30 -136.5q0 -114 63.5 -168.5t153.5 -54.5q75 0 131.5 46.5t56.5 117.5q0 51 -45 100.5t-127 61.5q17 42 52 64 t79 22q77 0 138 -58t61 -159q0 -51 -20 -99.5t-61 -91t-114.5 -68.5t-170.5 -26q-189 0 -289.5 88.5t-100.5 227.5zM354 803q0 56 41 95.5t97 39.5q57 0 96 -39t39 -96q0 -56 -39.5 -96.5t-95.5 -40.5t-97 41t-41 96z" />
<glyph unicode="&#xc0;" horiz-adv-x="1234" d="M-88 719q0 96 109 153.5t280 57.5q30 0 96 -4q53 129 115.5 235.5t135.5 192.5t157.5 134t171.5 48t164 -29v-1507h-226v737q-155 75 -378 101q-111 -395 -111 -725q0 -211 72 -346q-43 0 -78 6t-76.5 26.5t-70 55.5t-47.5 99t-19 150q0 147 42 347t116 395 q-122 -3 -203.5 -34t-81.5 -81q0 -8 2 -12q53 -16 53 -68q0 -34 -24.5 -49.5t-59.5 -15.5q-58 0 -98.5 32.5t-40.5 100.5zM557 905q222 -41 358 -106v639q-97 -6 -191 -153t-167 -380zM621 2048h174l145 -387h-113z" />
<glyph unicode="&#xc1;" horiz-adv-x="1234" d="M-88 719q0 96 109 153.5t280 57.5q30 0 96 -4q53 129 115.5 235.5t135.5 192.5t157.5 134t171.5 48t164 -29v-1507h-226v737q-155 75 -378 101q-111 -395 -111 -725q0 -211 72 -346q-43 0 -78 6t-76.5 26.5t-70 55.5t-47.5 99t-19 150q0 147 42 347t116 395 q-122 -3 -203.5 -34t-81.5 -81q0 -8 2 -12q53 -16 53 -68q0 -34 -24.5 -49.5t-59.5 -15.5q-58 0 -98.5 32.5t-40.5 100.5zM557 905q222 -41 358 -106v639q-97 -6 -191 -153t-167 -380zM815 1661l105 387h174l-166 -387h-113z" />
<glyph unicode="&#xc2;" horiz-adv-x="1234" d="M-88 719q0 96 109 153.5t280 57.5q30 0 96 -4q53 129 115.5 235.5t135.5 192.5t157.5 134t171.5 48t164 -29v-1507h-226v737q-155 75 -378 101q-111 -395 -111 -725q0 -211 72 -346q-43 0 -78 6t-76.5 26.5t-70 55.5t-47.5 99t-19 150q0 147 42 347t116 395 q-122 -3 -203.5 -34t-81.5 -81q0 -8 2 -12q53 -16 53 -68q0 -34 -24.5 -49.5t-59.5 -15.5q-58 0 -98.5 32.5t-40.5 100.5zM557 905q222 -41 358 -106v639q-97 -6 -191 -153t-167 -380zM557 1661l340 342h43l197 -342h-45l-177 207l-288 -207h-70z" />
<glyph unicode="&#xc3;" horiz-adv-x="1234" d="M-88 719q0 96 109 153.5t280 57.5q30 0 96 -4q53 129 115.5 235.5t135.5 192.5t157.5 134t171.5 48t164 -29v-1507h-226v737q-155 75 -378 101q-111 -395 -111 -725q0 -211 72 -346q-43 0 -78 6t-76.5 26.5t-70 55.5t-47.5 99t-19 150q0 147 42 347t116 395 q-122 -3 -203.5 -34t-81.5 -81q0 -8 2 -12q53 -16 53 -68q0 -34 -24.5 -49.5t-59.5 -15.5q-58 0 -98.5 32.5t-40.5 100.5zM528 1712q26 89 95 134.5t174 45.5q71 0 169.5 -29.5t147.5 -29.5q79 0 109 41h10q-2 -68 -79.5 -126t-178.5 -58q-63 0 -170 33.5t-154 33.5 q-69 0 -112 -49zM557 905q222 -41 358 -106v639q-97 -6 -191 -153t-167 -380z" />
<glyph unicode="&#xc4;" horiz-adv-x="1234" d="M-88 719q0 96 109 153.5t280 57.5q30 0 96 -4q53 129 115.5 235.5t135.5 192.5t157.5 134t171.5 48t164 -29v-1507h-226v737q-155 75 -378 101q-111 -395 -111 -725q0 -211 72 -346q-43 0 -78 6t-76.5 26.5t-70 55.5t-47.5 99t-19 150q0 147 42 347t116 395 q-122 -3 -203.5 -34t-81.5 -81q0 -8 2 -12q53 -16 53 -68q0 -34 -24.5 -49.5t-59.5 -15.5q-58 0 -98.5 32.5t-40.5 100.5zM557 905q222 -41 358 -106v639q-97 -6 -191 -153t-167 -380zM610 1833q0 45 32 78t77 33q44 0 77 -33.5t33 -77.5q0 -45 -32.5 -77t-77.5 -32 q-46 0 -77.5 31.5t-31.5 77.5zM936 1833q0 45 31.5 78t76.5 33q44 0 77.5 -33.5t33.5 -77.5q0 -45 -33 -77t-78 -32q-46 0 -77 31.5t-31 77.5z" />
<glyph unicode="&#xc5;" horiz-adv-x="1234" d="M-88 719q0 96 109 153.5t280 57.5q30 0 96 -4q53 129 115.5 235.5t135.5 192.5t157.5 134t171.5 48t164 -29v-1507h-226v737q-155 75 -378 101q-111 -395 -111 -725q0 -211 72 -346q-43 0 -78 6t-76.5 26.5t-70 55.5t-47.5 99t-19 150q0 147 42 347t116 395 q-122 -3 -203.5 -34t-81.5 -81q0 -8 2 -12q53 -16 53 -68q0 -34 -24.5 -49.5t-59.5 -15.5q-58 0 -98.5 32.5t-40.5 100.5zM557 905q222 -41 358 -106v639q-97 -6 -191 -153t-167 -380zM692 1815q0 65 43.5 111t116.5 46q77 0 118.5 -50.5t41.5 -119.5q0 -66 -38.5 -109.5 t-111.5 -43.5q-80 0 -125 49.5t-45 116.5zM774 1812q0 -36 23 -65t63 -29q37 0 57.5 25.5t20.5 62.5q0 39 -21 69t-59 30t-61 -28.5t-23 -64.5z" />
<glyph unicode="&#xc6;" horiz-adv-x="1705" d="M20 715q0 100 109 157.5t281 57.5q61 0 94 -4q54 129 117.5 235.5t139.5 192.5t164.5 134t180.5 48q48 0 174.5 -19.5t175.5 -19.5q51 0 119.5 12.5t107.5 26.5q-7 -112 -53.5 -151t-126.5 -39q-94 0 -254 45v-545h301v-121h-301v-582h451v-143h-676v737 q-154 74 -379 101q-110 -377 -110 -725q0 -212 71 -346q-31 0 -57 3t-57 12t-55 24.5t-47.5 42t-39.5 62t-25.5 88t-9.5 116.5q0 141 41.5 339.5t114.5 391.5q-122 -3 -202.5 -34t-80.5 -81q0 -8 2 -12q54 -17 54 -66q0 -67 -86 -67q-54 0 -96 32.5t-42 96.5zM666 905 q222 -41 358 -106v637q-68 -11 -135 -86t-121.5 -187t-101.5 -258z" />
<glyph unicode="&#xc7;" horiz-adv-x="1038" d="M98 717q0 120 15 230t53.5 219.5t97.5 189.5t154.5 130t216.5 50q106 0 191 -34.5t138.5 -108t53.5 -176.5q0 -144 -109 -144q-62 0 -96 37q20 14 34.5 60.5t14.5 101.5q0 94 -46.5 142t-125.5 48q-90 0 -159 -60t-109.5 -162t-61 -225.5t-20.5 -262.5 q0 -326 110.5 -477.5t323.5 -151.5q133 0 221.5 59t143.5 187l51 -21q-49 -170 -178 -268.5t-307 -110.5l-19 -104q62 16 105 16q153 0 153 -143q0 -85 -60 -134.5t-143 -49.5q-70 0 -120 14t-111 43q11 30 26.5 47.5t41.5 17.5t81 -30.5t84 -30.5q37 0 60.5 24.5t23.5 55.5 q0 39 -32 72.5t-90 33.5q-29 0 -54.5 -9t-35 -15.5t-27.5 -20.5l28 213q-248 12 -383 202t-135 546z" />
<glyph unicode="&#xc8;" horiz-adv-x="915" d="M84 428q0 150 72.5 261t203.5 165q-184 117 -184 309q0 69 26 135t74.5 120.5t127.5 88t176 33.5q48 0 90.5 -7.5t84 -26.5t71.5 -47.5t48.5 -74.5t18.5 -104q0 -77 -31 -122.5t-82 -45.5q-56 0 -108 55q33 13 58.5 53.5t25.5 94.5q0 73 -48.5 110t-115.5 37 q-104 0 -167 -85.5t-63 -194.5q0 -24 3 -51.5t16.5 -72.5t36.5 -82t68 -71.5t106 -48.5q-133 -30 -207 -136.5t-74 -256.5q0 -154 81.5 -246t240.5 -92q140 0 242 70t141 174l51 -21q-36 -120 -122.5 -209t-196 -132.5t-228.5 -43.5q-112 0 -199 41t-137 109.5t-75 148 t-25 166.5zM311 2048h174l146 -387h-113z" />
<glyph unicode="&#xc9;" horiz-adv-x="915" d="M84 428q0 150 72.5 261t203.5 165q-184 117 -184 309q0 69 26 135t74.5 120.5t127.5 88t176 33.5q48 0 90.5 -7.5t84 -26.5t71.5 -47.5t48.5 -74.5t18.5 -104q0 -77 -31 -122.5t-82 -45.5q-56 0 -108 55q33 13 58.5 53.5t25.5 94.5q0 73 -48.5 110t-115.5 37 q-104 0 -167 -85.5t-63 -194.5q0 -24 3 -51.5t16.5 -72.5t36.5 -82t68 -71.5t106 -48.5q-133 -30 -207 -136.5t-74 -256.5q0 -154 81.5 -246t240.5 -92q140 0 242 70t141 174l51 -21q-36 -120 -122.5 -209t-196 -132.5t-228.5 -43.5q-112 0 -199 41t-137 109.5t-75 148 t-25 166.5zM514 1661l104 387h175l-166 -387h-113z" />
<glyph unicode="&#xca;" horiz-adv-x="915" d="M84 428q0 150 72.5 261t203.5 165q-184 117 -184 309q0 69 26 135t74.5 120.5t127.5 88t176 33.5q48 0 90.5 -7.5t84 -26.5t71.5 -47.5t48.5 -74.5t18.5 -104q0 -77 -31 -122.5t-82 -45.5q-56 0 -108 55q33 13 58.5 53.5t25.5 94.5q0 73 -48.5 110t-115.5 37 q-104 0 -167 -85.5t-63 -194.5q0 -24 3 -51.5t16.5 -72.5t36.5 -82t68 -71.5t106 -48.5q-133 -30 -207 -136.5t-74 -256.5q0 -154 81.5 -246t240.5 -92q140 0 242 70t141 174l51 -21q-36 -120 -122.5 -209t-196 -132.5t-228.5 -43.5q-112 0 -199 41t-137 109.5t-75 148 t-25 166.5zM279 1661l339 342h44l196 -342h-45l-176 207l-289 -207h-69z" />
<glyph unicode="&#xcb;" horiz-adv-x="915" d="M84 428q0 150 72.5 261t203.5 165q-184 117 -184 309q0 69 26 135t74.5 120.5t127.5 88t176 33.5q48 0 90.5 -7.5t84 -26.5t71.5 -47.5t48.5 -74.5t18.5 -104q0 -77 -31 -122.5t-82 -45.5q-56 0 -108 55q33 13 58.5 53.5t25.5 94.5q0 73 -48.5 110t-115.5 37 q-104 0 -167 -85.5t-63 -194.5q0 -24 3 -51.5t16.5 -72.5t36.5 -82t68 -71.5t106 -48.5q-133 -30 -207 -136.5t-74 -256.5q0 -154 81.5 -246t240.5 -92q140 0 242 70t141 174l51 -21q-36 -120 -122.5 -209t-196 -132.5t-228.5 -43.5q-112 0 -199 41t-137 109.5t-75 148 t-25 166.5zM262 1833q0 45 32 78t77 33q44 0 77 -33.5t33 -77.5q0 -45 -32.5 -77t-77.5 -32q-46 0 -77.5 31.5t-31.5 77.5zM588 1833q0 45 31.5 78t76.5 33q44 0 77.5 -33.5t33.5 -77.5q0 -45 -33 -77t-78 -32q-46 0 -77 31.5t-31 77.5z" />
<glyph unicode="&#xcc;" horiz-adv-x="825" d="M37 1053q0 127 86.5 239t227.5 178t294 66q32 0 86 -4v-1532h-225v1415q-139 -39 -218 -135t-79 -233q0 -98 24.5 -150t69.5 -92q-266 0 -266 248zM348 2048h174l146 -387h-113z" />
<glyph unicode="&#xcd;" horiz-adv-x="825" d="M37 1053q0 127 86.5 239t227.5 178t294 66q32 0 86 -4v-1532h-225v1415q-139 -39 -218 -135t-79 -233q0 -98 24.5 -150t69.5 -92q-266 0 -266 248zM557 1661l105 387h174l-166 -387h-113z" />
<glyph unicode="&#xce;" horiz-adv-x="825" d="M37 1053q0 127 86.5 239t227.5 178t294 66q32 0 86 -4v-1532h-225v1415q-139 -39 -218 -135t-79 -233q0 -98 24.5 -150t69.5 -92q-266 0 -266 248zM319 1661l340 342h43l197 -342h-45l-176 207l-289 -207h-70z" />
<glyph unicode="&#xcf;" horiz-adv-x="825" d="M37 1053q0 127 86.5 239t227.5 178t294 66q32 0 86 -4v-1532h-225v1415q-139 -39 -218 -135t-79 -233q0 -98 24.5 -150t69.5 -92q-266 0 -266 248zM344 1833q0 45 32 78t77 33q44 0 77 -33.5t33 -77.5q0 -45 -32.5 -77t-77.5 -32q-46 0 -77.5 31.5t-31.5 77.5zM670 1833 q0 45 31.5 78t76.5 33q44 0 77.5 -33.5t33.5 -77.5q0 -45 -33 -77t-78 -32q-46 0 -77 31.5t-31 77.5z" />
<glyph unicode="&#xd0;" horiz-adv-x="1443" d="M37 1055q0 94 50 182t135 154t206 105.5t256 39.5q152 0 274 -44t202 -117.5t133.5 -175.5t76.5 -213t23 -234q0 -144 -30 -284.5t-81.5 -250t-125.5 -177t-157 -67.5q-124 0 -282 119v-92h-221v721h-131v125h131v467l221 30v-497h168v-125h-168v-561q71 -54 143 -54 q76 0 134 58t90.5 154t48.5 205.5t16 226.5q0 381 -114 546.5t-380 165.5q-125 0 -229.5 -49.5t-168.5 -147.5t-64 -227q0 -45 9 -83t20 -60.5t30 -43.5t28 -28t25 -18q-268 0 -268 250z" />
<glyph unicode="&#xd1;" horiz-adv-x="1452" d="M41 1069q0 84 35 167t94.5 150t148.5 108.5t189 41.5q75 0 143 -29l570 -1314v1339h137v-1532h-275l-514 1153v-1153h-137v1411q-239 -81 -239 -346q0 -77 18 -134.5t36 -80.5t44 -45q-128 0 -189 63.5t-61 200.5zM530 1712q26 89 95 134.5t174 45.5q71 0 169.5 -29.5 t147.5 -29.5q79 0 109 41h10q-2 -68 -79.5 -126t-178.5 -58q-63 0 -170 33.5t-154 33.5q-69 0 -112 -49z" />
<glyph unicode="&#xd2;" horiz-adv-x="1437" d="M37 1032q0 137 92 253t252.5 183.5t351.5 67.5q146 0 260 -43t186.5 -114.5t119.5 -172.5t66 -208.5t19 -231.5q0 -114 -16 -219.5t-55.5 -209.5t-99.5 -179.5t-156 -122.5t-217 -47q-84 0 -156.5 22t-136 72.5t-108.5 127t-71 192.5t-26 262q0 98 11 192t37.5 187 t66.5 162t102.5 112t140.5 43q50 0 105 -17q-65 -39 -114.5 -159.5t-73 -266t-23.5 -290.5q0 -51 3.5 -99t12 -106t26 -105t43 -87.5t65.5 -63.5t90 -23q80 0 140.5 57.5t95 155.5t51 214t16.5 247q0 155 -23.5 271t-62.5 186.5t-97 113.5t-118.5 58.5t-135.5 15.5 q-103 0 -191 -29t-155 -85t-105 -144.5t-38 -199.5q0 -163 63 -199q-112 0 -174.5 57.5t-62.5 169.5zM604 2048h174l146 -387h-113z" />
<glyph unicode="&#xd3;" horiz-adv-x="1437" d="M37 1032q0 137 92 253t252.5 183.5t351.5 67.5q146 0 260 -43t186.5 -114.5t119.5 -172.5t66 -208.5t19 -231.5q0 -114 -16 -219.5t-55.5 -209.5t-99.5 -179.5t-156 -122.5t-217 -47q-84 0 -156.5 22t-136 72.5t-108.5 127t-71 192.5t-26 262q0 98 11 192t37.5 187 t66.5 162t102.5 112t140.5 43q50 0 105 -17q-65 -39 -114.5 -159.5t-73 -266t-23.5 -290.5q0 -51 3.5 -99t12 -106t26 -105t43 -87.5t65.5 -63.5t90 -23q80 0 140.5 57.5t95 155.5t51 214t16.5 247q0 155 -23.5 271t-62.5 186.5t-97 113.5t-118.5 58.5t-135.5 15.5 q-103 0 -191 -29t-155 -85t-105 -144.5t-38 -199.5q0 -163 63 -199q-112 0 -174.5 57.5t-62.5 169.5zM786 1661l105 387h174l-166 -387h-113z" />
<glyph unicode="&#xd4;" horiz-adv-x="1437" d="M37 1032q0 137 92 253t252.5 183.5t351.5 67.5q146 0 260 -43t186.5 -114.5t119.5 -172.5t66 -208.5t19 -231.5q0 -114 -16 -219.5t-55.5 -209.5t-99.5 -179.5t-156 -122.5t-217 -47q-84 0 -156.5 22t-136 72.5t-108.5 127t-71 192.5t-26 262q0 98 11 192t37.5 187 t66.5 162t102.5 112t140.5 43q50 0 105 -17q-65 -39 -114.5 -159.5t-73 -266t-23.5 -290.5q0 -51 3.5 -99t12 -106t26 -105t43 -87.5t65.5 -63.5t90 -23q80 0 140.5 57.5t95 155.5t51 214t16.5 247q0 155 -23.5 271t-62.5 186.5t-97 113.5t-118.5 58.5t-135.5 15.5 q-103 0 -191 -29t-155 -85t-105 -144.5t-38 -199.5q0 -44 5.5 -79.5t12.5 -56t16.5 -35.5t16 -20.5t12.5 -7.5q-112 0 -174.5 57.5t-62.5 169.5zM551 1661l340 342h43l196 -342h-45l-176 207l-288 -207h-70z" />
<glyph unicode="&#xd5;" horiz-adv-x="1437" d="M37 1032q0 137 92 253t252.5 183.5t351.5 67.5q146 0 260 -43t186.5 -114.5t119.5 -172.5t66 -208.5t19 -231.5q0 -114 -16 -219.5t-55.5 -209.5t-99.5 -179.5t-156 -122.5t-217 -47q-84 0 -156.5 22t-136 72.5t-108.5 127t-71 192.5t-26 262q0 98 11 192t37.5 187 t66.5 162t102.5 112t140.5 43q50 0 105 -17q-65 -39 -114.5 -159.5t-73 -266t-23.5 -290.5q0 -51 3.5 -99t12 -106t26 -105t43 -87.5t65.5 -63.5t90 -23q80 0 140.5 57.5t95 155.5t51 214t16.5 247q0 155 -23.5 271t-62.5 186.5t-97 113.5t-118.5 58.5t-135.5 15.5 q-103 0 -191 -29t-155 -85t-105 -144.5t-38 -199.5q0 -157 63 -199q-112 0 -174.5 57.5t-62.5 169.5zM481 1712q26 89 95 134.5t174 45.5q71 0 169.5 -29.5t147.5 -29.5q79 0 109 41h10q-2 -68 -79.5 -126t-178.5 -58q-63 0 -170 33.5t-154 33.5q-69 0 -112 -49z" />
<glyph unicode="&#xd6;" horiz-adv-x="1437" d="M37 1032q0 137 92 253t252.5 183.5t351.5 67.5q146 0 260 -43t186.5 -114.5t119.5 -172.5t66 -208.5t19 -231.5q0 -114 -16 -219.5t-55.5 -209.5t-99.5 -179.5t-156 -122.5t-217 -47q-84 0 -156.5 22t-136 72.5t-108.5 127t-71 192.5t-26 262q0 98 11 192t37.5 187 t66.5 162t102.5 112t140.5 43q50 0 105 -17q-65 -39 -114.5 -159.5t-73 -266t-23.5 -290.5q0 -51 3.5 -99t12 -106t26 -105t43 -87.5t65.5 -63.5t90 -23q80 0 140.5 57.5t95 155.5t51 214t16.5 247q0 155 -23.5 271t-62.5 186.5t-97 113.5t-118.5 58.5t-135.5 15.5 q-103 0 -191 -29t-155 -85t-105 -144.5t-38 -199.5q0 -157 63 -199q-112 0 -174.5 57.5t-62.5 169.5zM578 1833q0 45 31.5 78t76.5 33q44 0 77.5 -33.5t33.5 -77.5q0 -45 -33 -77t-78 -32q-46 0 -77 31.5t-31 77.5zM903 1833q0 45 32 78t77 33q44 0 77 -33.5t33 -77.5 q0 -45 -32.5 -77t-77.5 -32q-46 0 -77.5 31.5t-31.5 77.5z" />
<glyph unicode="&#xd7;" horiz-adv-x="792" d="M86 750l104 106l224 -227l196 196l99 -98l-197 -197l193 -190l-103 -107l-194 193l-218 -217l-98 98l217 217z" />
<glyph unicode="&#xd8;" horiz-adv-x="1413" d="M33 1032q0 137 92 253t252.5 183.5t351.5 67.5q30 0 88 -4v10h66v-20q137 -26 236.5 -98t155 -177t80.5 -223.5t25 -257.5q0 -109 -15 -211t-51.5 -202.5t-91.5 -176t-142 -126.5t-197 -60v-135h-66v133q-104 3 -188 41t-150.5 115.5t-103.5 209.5t-37 310q0 98 11 192 t37.5 187t66.5 162t102.5 112t140.5 43q50 0 105 -17q-65 -39 -114.5 -159.5t-73 -266t-23.5 -290.5q0 -63 4 -119t18.5 -124.5t37.5 -118t66.5 -84.5t100.5 -38v1305q-55 14 -121 14q-103 0 -191 -29t-155 -85t-105 -144.5t-38 -199.5q0 -154 63 -199q-112 0 -174.5 57.5 t-62.5 169.5zM883 150q65 19 114.5 82.5t78.5 157t43 201t14 226.5q0 501 -250 610v-1277z" />
<glyph unicode="&#xd9;" horiz-adv-x="1576" d="M33 1051q0 128 87.5 240.5t233 178.5t308.5 66q42 0 96 -10v-1102q0 -72 14.5 -124.5t37 -82t57 -47t67 -22.5t74.5 -5t74.5 5t67.5 23t57.5 48t37.5 83t15 126v1104h225v-1110q0 -36 -5 -72.5t-19.5 -81t-37 -83t-61 -76t-88.5 -64t-123 -43t-160 -16.5q-119 0 -210 31 t-142 76.5t-82.5 107.5t-41 113.5t-9.5 105.5v1028q-153 -34 -237.5 -141.5t-84.5 -270.5q0 -44 6 -81.5t16.5 -62.5t19.5 -40.5t20 -29t12 -15.5q-91 0 -158 64t-67 180zM737 2048h174l146 -387h-113z" />
<glyph unicode="&#xda;" horiz-adv-x="1576" d="M33 1051q0 128 87.5 240.5t233 178.5t308.5 66q42 0 96 -10v-1102q0 -72 14.5 -124.5t37 -82t57 -47t67 -22.5t74.5 -5t74.5 5t67.5 23t57.5 48t37.5 83t15 126v1104h225v-1110q0 -36 -5 -72.5t-19.5 -81t-37 -83t-61 -76t-88.5 -64t-123 -43t-160 -16.5q-119 0 -210 31 t-142 76.5t-82.5 107.5t-41 113.5t-9.5 105.5v1028q-153 -34 -237.5 -141.5t-84.5 -270.5q0 -44 6 -81.5t16.5 -62.5t19.5 -40.5t20 -29t12 -15.5q-91 0 -158 64t-67 180zM930 1661l104 387h174l-166 -387h-112z" />
<glyph unicode="&#xdb;" horiz-adv-x="1576" d="M33 1051q0 128 87.5 240.5t233 178.5t308.5 66q42 0 96 -10v-1102q0 -72 14.5 -124.5t37 -82t57 -47t67 -22.5t74.5 -5t74.5 5t67.5 23t57.5 48t37.5 83t15 126v1104h225v-1110q0 -36 -5 -72.5t-19.5 -81t-37 -83t-61 -76t-88.5 -64t-123 -43t-160 -16.5q-119 0 -210 31 t-142 76.5t-82.5 107.5t-41 113.5t-9.5 105.5v1028q-153 -34 -237.5 -141.5t-84.5 -270.5q0 -44 6 -81.5t16.5 -62.5t19.5 -40.5t20 -29t12 -15.5q-91 0 -158 64t-67 180zM717 1661l340 342h43l196 -342h-45l-176 207l-289 -207h-69z" />
<glyph unicode="&#xdc;" horiz-adv-x="1576" d="M33 1051q0 128 87.5 240.5t233 178.5t308.5 66q42 0 96 -10v-1102q0 -72 14.5 -124.5t37 -82t57 -47t67 -22.5t74.5 -5t74.5 5t67.5 23t57.5 48t37.5 83t15 126v1104h225v-1110q0 -36 -5 -72.5t-19.5 -81t-37 -83t-61 -76t-88.5 -64t-123 -43t-160 -16.5q-119 0 -210 31 t-142 76.5t-82.5 107.5t-41 113.5t-9.5 105.5v1028q-153 -34 -237.5 -141.5t-84.5 -270.5q0 -44 6 -81.5t16.5 -62.5t19.5 -40.5t20 -29t12 -15.5q-91 0 -158 64t-67 180zM733 1833q0 45 32 78t77 33q44 0 77 -33.5t33 -77.5q0 -45 -32.5 -77t-77.5 -32q-46 0 -77.5 31.5 t-31.5 77.5zM1059 1833q0 45 31.5 78t76.5 33q44 0 77.5 -33.5t33.5 -77.5q0 -45 -33 -77t-78 -32q-46 0 -77 31.5t-31 77.5z" />
<glyph unicode="&#xdd;" horiz-adv-x="1245" d="M41 1073q0 94 34.5 178t96.5 147.5t155 100.5t203 37q30 0 84 -4l297 -787l265 781h106l-328 -895v-631h-221v631l-321 831q-68 -18 -117 -58t-76 -93t-39 -108.5t-12 -117.5q0 -163 102 -280q-229 0 -229 268zM838 1661l104 387h174l-166 -387h-112z" />
<glyph unicode="&#xde;" horiz-adv-x="1228" d="M37 821q0 155 112 279.5t293 177.5v225l224 31v-223h8q126 0 231 -36t174.5 -98.5t107.5 -145.5t38 -177q0 -68 -19 -137t-59.5 -134t-97 -115t-137.5 -80t-175 -30q-44 0 -71 2v-360h-224v1208q-123 -42 -189.5 -141.5t-66.5 -253.5q0 -57 10.5 -102.5t21.5 -65.5 t25 -38.5t15 -20.5q-104 0 -162.5 62.5t-58.5 172.5zM666 420h45q104 0 182.5 60t118 155.5t39.5 208.5q0 56 -10 107t-37 103t-69 90t-111 64t-158 29v-817z" />
<glyph unicode="&#xdf;" horiz-adv-x="921" d="M109 -512v1597q0 84 18.5 148t47.5 101.5t70 60.5t79.5 31t83.5 8q165 0 254.5 -83t89.5 -233q0 -76 -34.5 -143t-99.5 -101q283 -87 283 -446q0 -107 -27 -192.5t-70.5 -135t-92.5 -75t-97 -25.5q-21 0 -67 4v80q56 0 98 32t64 86t32.5 113.5t10.5 124.5q0 325 -273 385 l8 78q80 19 122 81t42 136q0 89 -44 140t-107 51q-66 0 -115.5 -60.5t-50.5 -165.5v-1523z" />
<glyph unicode="&#xe0;" d="M66 457q0 79 13.5 157t43.5 154.5t74 135t111 94.5t147 36q58 0 110.5 -25t79.5 -83v98h205v-696q0 -185 92 -185q101 0 148 224h75q-18 -98 -45 -170.5t-55 -111.5t-63 -62t-62 -29t-59 -6q-161 0 -199 194q-33 -84 -103 -139t-163 -55q-52 0 -100.5 15.5t-94.5 51 t-80 88.5t-54.5 133.5t-20.5 180.5zM248 1536h174l145 -387h-112zM281 471q0 -170 47 -249t139 -79q66 0 122 66.5t56 157.5v467q-15 36 -47 62t-74 26q-63 0 -112 -43t-76 -112t-41 -144.5t-14 -151.5z" />
<glyph unicode="&#xe1;" d="M66 457q0 79 13.5 157t43.5 154.5t74 135t111 94.5t147 36q58 0 110.5 -25t79.5 -83v98h205v-696q0 -185 92 -185q101 0 148 224h75q-18 -98 -45 -170.5t-55 -111.5t-63 -62t-62 -29t-59 -6q-161 0 -199 194q-33 -84 -103 -139t-163 -55q-52 0 -100.5 15.5t-94.5 51 t-80 88.5t-54.5 133.5t-20.5 180.5zM281 471q0 -170 47 -249t139 -79q66 0 122 66.5t56 157.5v467q-15 36 -47 62t-74 26q-63 0 -112 -43t-76 -112t-41 -144.5t-14 -151.5zM420 1149l104 387h174l-166 -387h-112z" />
<glyph unicode="&#xe2;" d="M66 457q0 79 13.5 157t43.5 154.5t74 135t111 94.5t147 36q58 0 110.5 -25t79.5 -83v98h205v-696q0 -185 92 -185q101 0 148 224h75q-18 -98 -45 -170.5t-55 -111.5t-63 -62t-62 -29t-59 -6q-161 0 -199 194q-33 -84 -103 -139t-163 -55q-52 0 -100.5 15.5t-94.5 51 t-80 88.5t-54.5 133.5t-20.5 180.5zM201 1149l340 342h43l196 -342h-45l-176 207l-289 -207h-69zM281 471q0 -170 47 -249t139 -79q66 0 122 66.5t56 157.5v467q-15 36 -47 62t-74 26q-63 0 -112 -43t-76 -112t-41 -144.5t-14 -151.5z" />
<glyph unicode="&#xe3;" d="M66 457q0 79 13.5 157t43.5 154.5t74 135t111 94.5t147 36q58 0 110.5 -25t79.5 -83v98h205v-696q0 -185 92 -185q101 0 148 224h75q-18 -98 -45 -170.5t-55 -111.5t-63 -62t-62 -29t-59 -6q-161 0 -199 194q-33 -84 -103 -139t-163 -55q-52 0 -100.5 15.5t-94.5 51 t-80 88.5t-54.5 133.5t-20.5 180.5zM137 1200q26 89 95 134.5t174 45.5q71 0 169.5 -29.5t147.5 -29.5q78 0 108 41h11q-2 -68 -79.5 -126t-178.5 -58q-63 0 -170 33.5t-154 33.5q-70 0 -113 -49zM281 471q0 -170 47 -249t139 -79q66 0 122 66.5t56 157.5v467q-15 36 -47 62 t-74 26q-63 0 -112 -43t-76 -112t-41 -144.5t-14 -151.5z" />
<glyph unicode="&#xe4;" d="M66 457q0 79 13.5 157t43.5 154.5t74 135t111 94.5t147 36q58 0 110.5 -25t79.5 -83v98h205v-696q0 -185 92 -185q101 0 148 224h75q-18 -98 -45 -170.5t-55 -111.5t-63 -62t-62 -29t-59 -6q-161 0 -199 194q-33 -84 -103 -139t-163 -55q-52 0 -100.5 15.5t-94.5 51 t-80 88.5t-54.5 133.5t-20.5 180.5zM258 1321q0 45 32 78t77 33q44 0 77 -33.5t33 -77.5q0 -45 -32.5 -77t-77.5 -32q-46 0 -77.5 31.5t-31.5 77.5zM281 471q0 -170 47 -249t139 -79q66 0 122 66.5t56 157.5v467q-15 36 -47 62t-74 26q-63 0 -112 -43t-76 -112t-41 -144.5 t-14 -151.5zM584 1321q0 45 31.5 78t76.5 33q44 0 77.5 -33.5t33.5 -77.5q0 -45 -33 -77t-78 -32q-46 0 -77 31.5t-31 77.5z" />
<glyph unicode="&#xe5;" d="M66 457q0 79 13.5 157t43.5 154.5t74 135t111 94.5t147 36q58 0 110.5 -25t79.5 -83v98h205v-696q0 -185 92 -185q101 0 148 224h75q-18 -98 -45 -170.5t-55 -111.5t-63 -62t-62 -29t-59 -6q-161 0 -199 194q-33 -84 -103 -139t-163 -55q-52 0 -100.5 15.5t-94.5 51 t-80 88.5t-54.5 133.5t-20.5 180.5zM281 471q0 -170 47 -249t139 -79q66 0 122 66.5t56 157.5v467q-15 36 -47 62t-74 26q-63 0 -112 -43t-76 -112t-41 -144.5t-14 -151.5zM373 1303q0 65 43 111t116 46q77 0 118.5 -50.5t41.5 -119.5q0 -66 -38 -109.5t-111 -43.5 q-80 0 -125 49.5t-45 116.5zM455 1300q0 -36 23 -65t63 -29q37 0 57 25.5t20 62.5q0 39 -20.5 69t-58.5 30t-61 -28.5t-23 -64.5z" />
<glyph unicode="&#xe6;" horiz-adv-x="1263" d="M94 324q0 96 52 158t136.5 87t202.5 25q69 0 127 -8q13 54 13 121q0 97 -48.5 163t-138.5 66q-85 0 -134.5 -31t-88.5 -90l-70 59q62 81 135 120.5t177 39.5q140 0 282 -94q106 94 234 94q55 0 100.5 -13t85.5 -42t63 -85t23 -134q0 -140 -113 -224.5t-321 -101.5 q14 -154 66 -222.5t167 -68.5q103 0 187.5 54.5t136.5 169.5h66q-53 -160 -175.5 -269.5t-279.5 -109.5q-207 0 -309 194q-14 -44 -30.5 -75t-44.5 -60t-72 -44t-103 -15q-46 0 -88.5 8.5t-87 32t-77 60t-53 97t-20.5 138.5zM309 313q0 -78 42 -124t108 -46q28 0 51 10 t39 29.5t28.5 41t20 52.5t12 55t7 58t3 52.5t1.5 45.5q-36 5 -82 5q-110 0 -170 -44t-60 -135zM805 514q145 15 227 87.5t82 186.5q0 146 -102 146q-55 0 -96 -35.5t-64.5 -96t-35 -133t-11.5 -155.5z" />
<glyph unicode="&#xe7;" horiz-adv-x="745" d="M72 465q0 61 7 121.5t22.5 126.5t44.5 122t69 101.5t101 71.5t135 26q129 0 196.5 -63t67.5 -183q0 -53 -21 -86.5t-59 -33.5q-47 0 -76 43q16 13 25.5 43.5t9.5 62.5q0 48 -30 78.5t-83 30.5t-92 -39.5t-59.5 -105.5t-30.5 -138t-10 -151q0 -84 12.5 -146.5t33.5 -100.5 t53 -61.5t65.5 -32t76.5 -8.5q107 0 183 55t129 169h69q-42 -131 -138.5 -233t-215.5 -134l-25 -135q62 16 105 16q76 0 115 -36.5t39 -106.5q0 -85 -60 -134.5t-143 -49.5q-70 0 -120.5 14t-111.5 43q11 30 26.5 47.5t41.5 17.5t81.5 -30.5t84.5 -30.5q37 0 60.5 24.5 t23.5 55.5q0 39 -32.5 72.5t-90.5 33.5q-29 0 -54.5 -9t-35 -15.5t-27.5 -20.5l33 232q-60 0 -115.5 15t-107 51t-89.5 89.5t-60.5 136t-22.5 185.5z" />
<glyph unicode="&#xe8;" horiz-adv-x="753" d="M72 461q0 73 12 148t41 152.5t72.5 137t112 97.5t153.5 38q272 0 272 -266q0 -143 -118.5 -239t-325.5 -119q14 -151 75 -209t160 -58q103 0 187.5 54.5t136.5 169.5h65q-54 -156 -187.5 -267.5t-285.5 -111.5q-74 0 -137.5 25.5t-117 79t-84.5 148t-31 220.5zM188 1536 h174l146 -387h-113zM289 489q145 23 230 103.5t85 195.5q0 146 -102 146q-68 0 -118 -71t-72.5 -169.5t-22.5 -204.5z" />
<glyph unicode="&#xe9;" horiz-adv-x="753" d="M72 461q0 73 12 148t41 152.5t72.5 137t112 97.5t153.5 38q272 0 272 -266q0 -143 -118.5 -239t-325.5 -119q14 -151 75 -209t160 -58q103 0 187.5 54.5t136.5 169.5h65q-54 -156 -187.5 -267.5t-285.5 -111.5q-74 0 -137.5 25.5t-117 79t-84.5 148t-31 220.5zM289 489 q145 23 230 103.5t85 195.5q0 146 -102 146q-68 0 -118 -71t-72.5 -169.5t-22.5 -204.5zM412 1149l104 387h174l-166 -387h-112z" />
<glyph unicode="&#xea;" horiz-adv-x="753" d="M72 461q0 73 12 148t41 152.5t72.5 137t112 97.5t153.5 38q272 0 272 -266q0 -143 -118.5 -239t-325.5 -119q14 -151 75 -209t160 -58q103 0 187.5 54.5t136.5 169.5h65q-54 -156 -187.5 -267.5t-285.5 -111.5q-74 0 -137.5 25.5t-117 79t-84.5 148t-31 220.5zM160 1149 l340 342h43l196 -342h-45l-176 207l-289 -207h-69zM289 489q145 23 230 103.5t85 195.5q0 146 -102 146q-68 0 -118 -71t-72.5 -169.5t-22.5 -204.5z" />
<glyph unicode="&#xeb;" horiz-adv-x="753" d="M72 461q0 73 12 148t41 152.5t72.5 137t112 97.5t153.5 38q272 0 272 -266q0 -143 -118.5 -239t-325.5 -119q14 -151 75 -209t160 -58q103 0 187.5 54.5t136.5 169.5h65q-54 -156 -187.5 -267.5t-285.5 -111.5q-74 0 -137.5 25.5t-117 79t-84.5 148t-31 220.5zM182 1321 q0 45 32 78t77 33q44 0 77 -33.5t33 -77.5q0 -45 -32.5 -77t-77.5 -32q-46 0 -77.5 31.5t-31.5 77.5zM289 489q145 23 230 103.5t85 195.5q0 146 -102 146q-68 0 -118 -71t-72.5 -169.5t-22.5 -204.5zM508 1321q0 45 31.5 78t76.5 33q44 0 77.5 -33.5t33.5 -77.5 q0 -45 -33 -77t-78 -32q-46 0 -77 31.5t-31 77.5z" />
<glyph unicode="&#xec;" horiz-adv-x="444" d="M-72 1536h174l146 -387h-113zM96 285v739h205v-696q0 -185 92 -185q101 0 148 224h75q-18 -98 -45 -170.5t-55 -111.5t-63 -62t-62 -29t-59 -6q-67 0 -115.5 27t-73.5 72.5t-36 94t-11 103.5z" />
<glyph unicode="&#xed;" horiz-adv-x="444" d="M96 285v739h205v-696q0 -185 92 -185q101 0 148 224h75q-18 -98 -45 -170.5t-55 -111.5t-63 -62t-62 -29t-59 -6q-67 0 -115.5 27t-73.5 72.5t-36 94t-11 103.5zM141 1149l105 387h174l-166 -387h-113z" />
<glyph unicode="&#xee;" horiz-adv-x="444" d="M-78 1149l340 342h43l197 -342h-45l-176 207l-289 -207h-70zM96 285v739h205v-696q0 -185 92 -185q101 0 148 224h75q-18 -98 -45 -170.5t-55 -111.5t-63 -62t-62 -29t-59 -6q-67 0 -115.5 27t-73.5 72.5t-36 94t-11 103.5z" />
<glyph unicode="&#xef;" horiz-adv-x="444" d="M-74 1321q0 45 32 78t77 33q44 0 77 -33.5t33 -77.5q0 -45 -32.5 -77t-77.5 -32q-46 0 -77.5 31.5t-31.5 77.5zM96 285v739h205v-696q0 -185 92 -185q101 0 148 224h75q-18 -98 -45 -170.5t-55 -111.5t-63 -62t-62 -29t-59 -6q-67 0 -115.5 27t-73.5 72.5t-36 94 t-11 103.5zM252 1321q0 45 31.5 78t76.5 33q44 0 77.5 -33.5t33.5 -77.5q0 -45 -33 -77t-78 -32q-46 0 -77 31.5t-31 77.5z" />
<glyph unicode="&#xf0;" d="M66 457q0 79 13.5 157t43.5 154.5t74 135t111 94.5t147 36q58 0 110.5 -25t79.5 -83v112q0 95 -14 158l-144 -39l-12 62l137 36q-35 87 -125 179h72q139 -79 195 -140l147 41l12 -61l-118 -33q55 -98 55 -264v-649q0 -185 92 -185q101 0 148 224h75q-18 -98 -45 -170.5 t-55 -111.5t-63 -62t-62 -29t-59 -6q-161 0 -199 194q-33 -84 -103 -139t-163 -55q-52 0 -100.5 15.5t-94.5 51t-80 88.5t-54.5 133.5t-20.5 180.5zM281 471q0 -170 47 -249t139 -79q66 0 122 66.5t56 157.5v467q-15 36 -47 62t-74 26q-63 0 -112 -43t-76 -112t-41 -144.5 t-14 -151.5z" />
<glyph unicode="&#xf1;" horiz-adv-x="956" d="M94 0v1024h205v-156q28 53 61 88.5t67 51t60.5 21t57.5 5.5q71 0 124 -23.5t82 -59t46.5 -87.5t22.5 -96.5t5 -99.5q0 -47 -6 -171t-6 -178q0 -176 92 -176q101 0 148 224h75q-17 -98 -44.5 -170.5t-55.5 -111.5t-62.5 -62t-61 -29t-56.5 -6q-121 0 -180.5 88.5 t-59.5 224.5q0 25 3 176.5t3 179.5q0 222 -131 222q-65 0 -110 -53.5t-74 -170.5v-655h-205zM131 1200q53 180 268 180q71 0 170 -29.5t148 -29.5q78 0 108 41h11q-2 -68 -79.5 -126t-178.5 -58q-63 0 -170 33.5t-154 33.5q-70 0 -113 -49z" />
<glyph unicode="&#xf2;" horiz-adv-x="858" d="M70 465q0 77 11.5 152t41 151.5t73 134.5t114.5 94.5t159 36.5q78 0 136.5 -24t95.5 -69.5t58 -101.5t32 -128h12q81 0 153.5 33.5t126.5 89.5l31 -56q-38 -63 -125.5 -107.5t-187.5 -60.5q0 -13 1 -41t1 -43q0 -253 -92.5 -395.5t-257.5 -142.5q-57 0 -110 15.5 t-103.5 51.5t-87.5 89.5t-59.5 136t-22.5 184.5zM233 1536h175l145 -387h-113zM291 473q0 -95 17.5 -163t47.5 -102.5t62.5 -49.5t70.5 -15q105 0 158 106.5t53 305.5q0 33 -2 49q-59 3 -84.5 27t-25.5 76q0 46 20.5 66t61.5 22q-45 127 -148 127q-61 0 -107.5 -41 t-72.5 -109t-38.5 -143.5t-12.5 -155.5z" />
<glyph unicode="&#xf3;" horiz-adv-x="858" d="M70 465q0 77 11.5 152t41 151.5t73 134.5t114.5 94.5t159 36.5q78 0 136.5 -24t95.5 -69.5t58 -101.5t32 -128h12q81 0 153.5 33.5t126.5 89.5l31 -56q-38 -63 -125.5 -107.5t-187.5 -60.5q0 -13 1 -41t1 -43q0 -253 -92.5 -395.5t-257.5 -142.5q-57 0 -110 15.5 t-103.5 51.5t-87.5 89.5t-59.5 136t-22.5 184.5zM291 473q0 -95 17.5 -163t47.5 -102.5t62.5 -49.5t70.5 -15q105 0 158 106.5t53 305.5q0 33 -2 49q-59 3 -84.5 27t-25.5 76q0 46 20.5 66t61.5 22q-45 127 -148 127q-61 0 -107.5 -41t-72.5 -109t-38.5 -143.5t-12.5 -155.5 zM428 1149l104 387h175l-166 -387h-113z" />
<glyph unicode="&#xf4;" horiz-adv-x="858" d="M70 465q0 77 11.5 152t41 151.5t73 134.5t114.5 94.5t159 36.5q78 0 136.5 -24t95.5 -69.5t58 -101.5t32 -128h12q81 0 153.5 33.5t126.5 89.5l31 -56q-38 -63 -125.5 -107.5t-187.5 -60.5q0 -13 1 -41t1 -43q0 -253 -92.5 -395.5t-257.5 -142.5q-57 0 -110 15.5 t-103.5 51.5t-87.5 89.5t-59.5 136t-22.5 184.5zM197 1149l340 342h43l196 -342h-45l-176 207l-289 -207h-69zM291 473q0 -95 17.5 -163t47.5 -102.5t62.5 -49.5t70.5 -15q105 0 158 106.5t53 305.5q0 33 -2 49q-59 3 -84.5 27t-25.5 76q0 46 20.5 66t61.5 22 q-45 127 -148 127q-61 0 -107.5 -41t-72.5 -109t-38.5 -143.5t-12.5 -155.5z" />
<glyph unicode="&#xf5;" horiz-adv-x="858" d="M70 465q0 77 11.5 152t41 151.5t73 134.5t114.5 94.5t159 36.5q78 0 136.5 -24t95.5 -69.5t58 -101.5t32 -128h12q81 0 153.5 33.5t126.5 89.5l31 -56q-38 -63 -125.5 -107.5t-187.5 -60.5q0 -13 1 -41t1 -43q0 -253 -92.5 -395.5t-257.5 -142.5q-57 0 -110 15.5 t-103.5 51.5t-87.5 89.5t-59.5 136t-22.5 184.5zM141 1200q26 89 95 134.5t174 45.5q71 0 169.5 -29.5t147.5 -29.5q79 0 109 41h10q-2 -68 -79.5 -126t-178.5 -58q-63 0 -170 33.5t-154 33.5q-69 0 -112 -49zM291 473q0 -95 17.5 -163t47.5 -102.5t62.5 -49.5t70.5 -15 q105 0 158 106.5t53 305.5q0 33 -2 49q-59 3 -84.5 27t-25.5 76q0 46 20.5 66t61.5 22q-45 127 -148 127q-61 0 -107.5 -41t-72.5 -109t-38.5 -143.5t-12.5 -155.5z" />
<glyph unicode="&#xf6;" horiz-adv-x="858" d="M70 465q0 77 11.5 152t41 151.5t73 134.5t114.5 94.5t159 36.5q78 0 136.5 -24t95.5 -69.5t58 -101.5t32 -128h12q81 0 153.5 33.5t126.5 89.5l31 -56q-38 -63 -125.5 -107.5t-187.5 -60.5q0 -13 1 -41t1 -43q0 -253 -92.5 -395.5t-257.5 -142.5q-57 0 -110 15.5 t-103.5 51.5t-87.5 89.5t-59.5 136t-22.5 184.5zM221 1321q0 45 32 78t77 33q44 0 77 -33.5t33 -77.5q0 -45 -32.5 -77t-77.5 -32q-46 0 -77.5 31.5t-31.5 77.5zM291 473q0 -95 17.5 -163t47.5 -102.5t62.5 -49.5t70.5 -15q105 0 158 106.5t53 305.5q0 33 -2 49 q-59 3 -84.5 27t-25.5 76q0 46 20.5 66t61.5 22q-45 127 -148 127q-61 0 -107.5 -41t-72.5 -109t-38.5 -143.5t-12.5 -155.5zM547 1321q0 45 31.5 78t76.5 33q44 0 77.5 -33.5t33.5 -77.5q0 -45 -33 -77t-78 -32q-46 0 -77 31.5t-31 77.5z" />
<glyph unicode="&#xf7;" horiz-adv-x="856" d="M70 440v144h716v-144h-716zM293 883q0 56 39.5 96.5t95.5 40.5t96.5 -41t40.5 -96q0 -56 -40.5 -95.5t-96.5 -39.5q-57 0 -96 39t-39 96zM295 135q0 56 39.5 96.5t95.5 40.5t96.5 -41t40.5 -96q0 -56 -40.5 -95.5t-96.5 -39.5q-57 0 -96 39t-39 96z" />
<glyph unicode="&#xf8;" horiz-adv-x="858" d="M70 465q0 73 10.5 145t37.5 146.5t67.5 132t105 97t145.5 46.5v207h107v-211q208 -40 248 -317h12q81 0 153.5 33.5t126.5 89.5l31 -56q-38 -63 -125.5 -107.5t-187.5 -60.5q0 -13 1 -41t1 -43q0 -227 -75 -365.5t-212 -166.5v-205h-106v201q-67 7 -125.5 37t-108 84.5 t-78 145.5t-28.5 208zM291 473q0 -95 17.5 -163t47.5 -102.5t62.5 -49.5t70.5 -15q105 0 158 106.5t53 305.5q0 33 -2 49q-59 3 -84.5 27t-25.5 76q0 46 20.5 66t61.5 22q-45 127 -148 127q-61 0 -107.5 -41t-72.5 -109t-38.5 -143.5t-12.5 -155.5z" />
<glyph unicode="&#xf9;" horiz-adv-x="929" d="M94 305v719h205v-696q0 -185 123 -185q63 0 111.5 62t48.5 162v657h204v-696q0 -185 93 -185q100 0 147 224h76q-17 -98 -44.5 -170.5t-55.5 -111.5t-63.5 -62t-62.5 -29t-59 -6q-87 0 -134.5 53.5t-64.5 138.5q-37 -96 -99.5 -144t-135.5 -48q-130 0 -209.5 76 t-79.5 241zM150 1536h174l145 -387h-113z" />
<glyph unicode="&#xfa;" horiz-adv-x="929" d="M94 305v719h205v-696q0 -185 123 -185q63 0 111.5 62t48.5 162v657h204v-696q0 -185 93 -185q100 0 147 224h76q-17 -98 -44.5 -170.5t-55.5 -111.5t-63.5 -62t-62.5 -29t-59 -6q-87 0 -134.5 53.5t-64.5 138.5q-37 -96 -99.5 -144t-135.5 -48q-130 0 -209.5 76 t-79.5 241zM367 1149l104 387h174l-166 -387h-112z" />
<glyph unicode="&#xfb;" horiz-adv-x="929" d="M94 305v719h205v-696q0 -185 123 -185q63 0 111.5 62t48.5 162v657h204v-696q0 -185 93 -185q100 0 147 224h76q-17 -98 -44.5 -170.5t-55.5 -111.5t-63.5 -62t-62.5 -29t-59 -6q-87 0 -134.5 53.5t-64.5 138.5q-37 -96 -99.5 -144t-135.5 -48q-130 0 -209.5 76 t-79.5 241zM162 1149l340 342h43l196 -342h-45l-176 207l-289 -207h-69z" />
<glyph unicode="&#xfc;" horiz-adv-x="929" d="M94 305v719h205v-696q0 -185 123 -185q63 0 111.5 62t48.5 162v657h204v-696q0 -185 93 -185q100 0 147 224h76q-17 -98 -44.5 -170.5t-55.5 -111.5t-63.5 -62t-62.5 -29t-59 -6q-87 0 -134.5 53.5t-64.5 138.5q-37 -96 -99.5 -144t-135.5 -48q-130 0 -209.5 76 t-79.5 241zM160 1321q0 45 31.5 78t76.5 33q44 0 77.5 -33.5t33.5 -77.5q0 -45 -33 -77t-78 -32q-46 0 -77 31.5t-31 77.5zM485 1321q0 45 32 78t77 33q44 0 77.5 -33.5t33.5 -77.5q0 -45 -33 -77t-78 -32q-46 0 -77.5 31.5t-31.5 77.5z" />
<glyph unicode="&#xfd;" horiz-adv-x="929" d="M94 305v719h205v-696q0 -185 123 -185q62 0 111 58.5t49 154.5v668h204v-981q58 19 93 38t67 54.5t50.5 91t29.5 140.5h76q-11 -72 -25.5 -126.5t-36 -94t-44 -66.5t-58 -48t-68.5 -34.5t-84 -28.5v-131q0 -180 -71.5 -265t-184.5 -85q-99 0 -158 57.5t-59 143.5 q0 175 269 286v129q-77 -116 -199 -116q-130 0 -209.5 76t-79.5 241zM373 1149l104 387h174l-166 -387h-112zM393 -303q0 -46 27 -74.5t72 -28.5q52 0 71 38.5t19 117.5v144q-100 -45 -144.5 -92t-44.5 -105z" />
<glyph unicode="&#xfe;" horiz-adv-x="968" d="M-63 1434h47q51 -31 84.5 -55t77.5 -67.5t71 -91t50 -120.5t30 -162q86 96 213 96q155 0 248.5 -128.5t93.5 -397.5q0 -73 -10.5 -142t-37 -139t-67 -122t-105.5 -84.5t-147 -32.5q-100 0 -184 98v-545l-207 -53v1505q0 155 -33 251t-124 190zM301 188q27 -34 61 -51.5 t62 -17.5q62 0 107.5 38.5t69.5 101.5t35 129t11 136q0 107 -19 185t-50.5 117.5t-65.5 57t-72 17.5q-86 0 -139 -98v-615z" />
<glyph unicode="&#xff;" horiz-adv-x="929" d="M94 305v719h205v-696q0 -185 123 -185q63 0 111.5 62t48.5 162v657h204v-981q58 19 93 38t67 54.5t50.5 91t29.5 140.5h76q-11 -72 -25.5 -126.5t-36 -94t-44 -66.5t-58 -48t-68.5 -34.5t-84 -28.5v-131q0 -180 -71.5 -265t-184.5 -85q-99 0 -158 57.5t-59 143.5 q0 175 269 286v129q-77 -116 -199 -116q-130 0 -209.5 76t-79.5 241zM168 1321q0 45 31.5 78t76.5 33q44 0 77.5 -33.5t33.5 -77.5q0 -45 -33 -77t-78 -32q-46 0 -77 31.5t-31 77.5zM393 -303q0 -46 27 -74.5t72 -28.5q52 0 71 38.5t19 117.5v144q-100 -45 -144.5 -92 t-44.5 -105zM494 1321q0 45 31.5 78t76.5 33q44 0 77.5 -33.5t33.5 -77.5q0 -45 -33 -77t-78 -32q-46 0 -77 31.5t-31 77.5z" />
<glyph unicode="&#x152;" horiz-adv-x="1808" d="M37 1032q0 137 92 253t252.5 183.5t351.5 67.5q153 0 268 -47q118 47 242 47q71 0 188 -12.5t185 -12.5q106 0 180 25q-2 -68 -16.5 -112t-41 -65t-54.5 -28.5t-68 -7.5q-85 0 -252 33t-201 37q198 -176 219 -547h287v-121h-287q-11 -389 -182 -582h584v-143h-828 q-52 -12 -116 -12q-84 0 -156.5 22t-136 72.5t-108.5 127t-71 192.5t-26 262q0 98 11 192t37.5 187t66.5 162t102.5 112t140.5 43q50 0 105 -17q-65 -39 -114.5 -159.5t-73 -266t-23.5 -290.5q0 -51 3.5 -99t12 -106t26 -105t43 -87.5t65.5 -63.5t90 -23q80 0 140.5 57.5 t95 155.5t51 214t16.5 247q0 155 -23.5 271t-62.5 186.5t-97 113.5t-118.5 58.5t-135.5 15.5q-103 0 -191 -29t-155 -85t-105 -144.5t-38 -199.5q0 -157 63 -199q-112 0 -174.5 57.5t-62.5 169.5z" />
<glyph unicode="&#x153;" horiz-adv-x="1386" d="M70 465q0 77 11.5 152t41 151.5t73 134.5t114.5 94.5t159 36.5q236 0 303 -235q48 107 128.5 171t195.5 64q272 0 272 -266q0 -143 -118.5 -239t-325.5 -119q14 -151 75 -209t160 -58q103 0 187.5 54.5t136.5 169.5h65q-54 -156 -187.5 -267.5t-285.5 -111.5 q-107 0 -193.5 52t-133.5 163q-43 -104 -118 -159.5t-177 -55.5q-57 0 -110 15.5t-103.5 51.5t-87.5 89.5t-59.5 136t-22.5 184.5zM291 473q0 -95 17.5 -163t47.5 -102.5t62.5 -49.5t70.5 -15q105 0 158 106.5t53 305.5q0 33 -2 49q-110 0 -110 111q0 77 82 80 q-45 127 -148 127q-61 0 -107.5 -41t-72.5 -109t-38.5 -143.5t-12.5 -155.5zM922 489q145 23 230 103.5t85 195.5q0 146 -102 146q-68 0 -118 -71t-72.5 -169.5t-22.5 -204.5z" />
<glyph unicode="&#x178;" horiz-adv-x="1245" d="M41 1073q0 94 34.5 178t96.5 147.5t155 100.5t203 37q30 0 84 -4l297 -787l265 781h106l-328 -895v-631h-221v631l-321 831q-68 -18 -117 -58t-76 -93t-39 -108.5t-12 -117.5q0 -163 102 -280q-229 0 -229 268zM586 1833q0 45 31.5 78t76.5 33q44 0 77.5 -33.5 t33.5 -77.5q0 -45 -33 -77t-78 -32q-46 0 -77 31.5t-31 77.5zM911 1833q0 45 32 78t77 33q44 0 77 -33.5t33 -77.5q0 -45 -32.5 -77t-77.5 -32q-46 0 -77.5 31.5t-31.5 77.5z" />
<glyph unicode="&#x2c6;" horiz-adv-x="600" d="M-233 1149l339 342h44l196 -342h-45l-176 207l-289 -207h-69z" />
<glyph unicode="&#x2dc;" horiz-adv-x="825" d="M-166 1200q53 180 268 180q71 0 170 -29.5t148 -29.5q78 0 108 41h11q-2 -68 -79.5 -126t-178.5 -58q-63 0 -170 33.5t-154 33.5q-70 0 -113 -49z" />
<glyph unicode="&#x2000;" horiz-adv-x="1024" />
<glyph unicode="&#x2001;" horiz-adv-x="2048" />
<glyph unicode="&#x2002;" horiz-adv-x="1024" />
<glyph unicode="&#x2003;" horiz-adv-x="2048" />
<glyph unicode="&#x2004;" horiz-adv-x="682" />
<glyph unicode="&#x2005;" horiz-adv-x="512" />
<glyph unicode="&#x2006;" horiz-adv-x="341" />
<glyph unicode="&#x2007;" horiz-adv-x="341" />
<glyph unicode="&#x2008;" horiz-adv-x="256" />
<glyph unicode="&#x2009;" horiz-adv-x="409" />
<glyph unicode="&#x200a;" horiz-adv-x="113" />
<glyph unicode="&#x2010;" horiz-adv-x="651" d="M121 473v143h409v-143h-409z" />
<glyph unicode="&#x2011;" horiz-adv-x="651" d="M121 473v143h409v-143h-409z" />
<glyph unicode="&#x2012;" horiz-adv-x="651" d="M121 473v143h409v-143h-409z" />
<glyph unicode="&#x2013;" horiz-adv-x="776" d="M121 473v143h534v-143h-534z" />
<glyph unicode="&#x2014;" horiz-adv-x="960" d="M121 473v143h719v-143h-719z" />
<glyph unicode="&#x2018;" horiz-adv-x="425" d="M76 1176q0 100 56.5 209t131.5 147q29 -16 29 -49q0 -28 -22.5 -84t-22.5 -80q0 -34 11 -49.5t26.5 -20t31 -11.5t26.5 -32t11 -73q0 -51 -42.5 -86t-90.5 -35q-74 0 -109.5 45t-35.5 119z" />
<glyph unicode="&#x2019;" horiz-adv-x="419" d="M72 1411q0 51 42.5 86t90.5 35q74 0 109.5 -45t35.5 -119q0 -100 -56.5 -209t-131.5 -147q-29 16 -29 49q0 28 22.5 84t22.5 80q0 34 -11 49.5t-26.5 20t-31 11.5t-26.5 32t-11 73z" />
<glyph unicode="&#x201a;" horiz-adv-x="442" d="M80 141q0 51 42.5 86t90.5 35q74 0 109.5 -45t35.5 -119q0 -100 -56.5 -209t-131.5 -147q-29 16 -29 49q0 28 22.5 84t22.5 80q0 34 -11 49.5t-26.5 20t-31 11.5t-26.5 32t-11 73z" />
<glyph unicode="&#x201c;" horiz-adv-x="870" d="M76 1176q0 100 56.5 209t131.5 147q29 -16 29 -49q0 -28 -22.5 -84t-22.5 -80q0 -34 11 -49.5t26.5 -20t31 -11.5t26.5 -32t11 -73q0 -51 -42.5 -86t-90.5 -35q-74 0 -109.5 45t-35.5 119zM520 1176q0 100 57 209t132 147q28 -16 28 -49q0 -28 -22.5 -84t-22.5 -80 q0 -29 8 -45t20 -20t25.5 -10t25.5 -13.5t20 -32.5t8 -65q0 -51 -42.5 -86t-90.5 -35q-74 0 -110 45t-36 119z" />
<glyph unicode="&#x201d;" horiz-adv-x="864" d="M72 1411q0 51 42.5 86t90.5 35q74 0 109.5 -45t35.5 -119q0 -100 -56.5 -209t-131.5 -147q-29 16 -29 49q0 28 22.5 84t22.5 80q0 34 -11 49.5t-26.5 20t-31 11.5t-26.5 32t-11 73zM516 1411q0 51 42.5 86t90.5 35q74 0 110 -45t36 -119q0 -100 -57 -209t-132 -147 q-28 16 -28 49q0 28 22.5 84t22.5 80q0 34 -11 49.5t-26.5 20t-31.5 11.5t-27 32t-11 73z" />
<glyph unicode="&#x201e;" horiz-adv-x="890" d="M80 141q0 51 42.5 86t90.5 35q74 0 109.5 -45t35.5 -119q0 -100 -56.5 -209t-131.5 -147q-29 16 -29 49q0 28 22.5 84t22.5 80q0 34 -11 49.5t-26.5 20t-31 11.5t-26.5 32t-11 73zM528 141q0 51 43 86t91 35q74 0 109.5 -45t35.5 -119q0 -100 -57 -209t-132 -147 q-28 16 -28 49q0 28 22.5 84t22.5 80q0 34 -11 49.5t-26.5 20t-31.5 11.5t-27 32t-11 73z" />
<glyph unicode="&#x2022;" horiz-adv-x="518" d="M90 547q0 71 49 120.5t119 49.5t120 -49.5t50 -120.5q0 -70 -49.5 -119t-120.5 -49q-70 0 -119 48.5t-49 119.5z" />
<glyph unicode="&#x2026;" horiz-adv-x="1415" d="M78 125q0 56 39.5 96.5t95.5 40.5q55 0 96 -41t41 -96q0 -56 -40.5 -95.5t-96.5 -39.5q-57 0 -96 39t-39 96zM563 125q0 56 39.5 96.5t95.5 40.5t97 -41t41 -96q0 -56 -41 -95.5t-97 -39.5q-57 0 -96 39t-39 96zM1065 125q0 56 39.5 96.5t95.5 40.5t96.5 -41t40.5 -96 q0 -56 -40.5 -95.5t-96.5 -39.5q-57 0 -96 39t-39 96z" />
<glyph unicode="&#x202f;" horiz-adv-x="409" />
<glyph unicode="&#x2039;" horiz-adv-x="626" d="M43 520l358 400l105 -93l-293 -309l342 -287l-63 -90z" />
<glyph unicode="&#x203a;" horiz-adv-x="632" d="M74 829l63 91l449 -379l-359 -400l-104 92l293 310z" />
<glyph unicode="&#x205f;" horiz-adv-x="512" />
<glyph unicode="&#x20ac;" horiz-adv-x="1261" d="M57 602v82h146v33q0 80 4 121h-150v82h156q12 99 36 185.5t66.5 167t99.5 137.5t140 91.5t184 34.5q106 0 191 -34.5t138.5 -108t53.5 -176.5q0 -144 -108 -144q-62 0 -96 37q20 14 34.5 60.5t14.5 101.5q0 94 -46.5 142t-125.5 48q-76 0 -137.5 -43t-102.5 -119 t-66.5 -171.5t-35.5 -208.5h428v-82h-435q-2 -29 -2 -86v-68h437v-82h-430q24 -248 132 -363.5t296 -115.5q186 0 288 119l54 -52q-73 -108 -192.5 -165.5t-268.5 -57.5q-246 0 -389 160.5t-164 474.5h-150z" />
<glyph unicode="&#x2122;" horiz-adv-x="991" d="M102 1219q0 55 45 92t138 37q35 0 82 -7.5t71 -7.5q37 0 72 13q2 -8 2 -23q0 -49 -66 -49q-18 0 -100 14v-401h-65v411q-10 2 -27 2q-53 0 -78.5 -19t-25.5 -67q0 -59 24 -86q-72 0 -72 91zM522 887l66 452h59l66 -358l67 358h70l45 -452h-72l-35 319l-61 -319h-65 l-56 315l-47 -315h-37z" />
<glyph unicode="&#xe000;" horiz-adv-x="1146" d="M0 0v1147h1147v-1147h-1147z" />
</font>
</defs>
</svg>
