<?xml version="1.0" standalone="no"?>
<!DOCTYPE svg PUBLIC "-//W3C//DTD SVG 1.1//EN" "http://www.w3.org/Graphics/SVG/1.1/DTD/svg11.dtd" >
<svg xmlns="http://www.w3.org/2000/svg">
<metadata></metadata>
<defs>
<font id="amaranthregular" horiz-adv-x="1024" >
<font-face units-per-em="2048" ascent="1536" descent="-512" />
<missing-glyph horiz-adv-x="522" />
<glyph horiz-adv-x="2048" />
<glyph horiz-adv-x="2048" />
<glyph unicode="&#xd;" horiz-adv-x="2048" />
<glyph unicode=" "  horiz-adv-x="522" />
<glyph unicode="&#x09;" horiz-adv-x="522" />
<glyph unicode="&#xa0;" horiz-adv-x="522" />
<glyph unicode="!" horiz-adv-x="653" d="M207 129q0 69 40.5 113.5t112.5 44.5q71 0 110.5 -42.5t39.5 -111.5q0 -67 -41 -111.5t-115 -44.5q-68 0 -107.5 44t-39.5 108zM260 451v935h260l-59 -935h-201z" />
<glyph unicode="&#x22;" horiz-adv-x="749" d="M102 1386h197l-16 -497h-164zM449 1386h196l-16 -497h-164z" />
<glyph unicode="#" horiz-adv-x="1261" d="M82 293l20 160h215l41 321h-229l21 160h229l37 280h162l-37 -280h254l36 280h162l-37 -280h203l-20 -160h-203l-41 -321h217l-20 -160h-218l-36 -293h-162l37 293h-254l-37 -293h-162l37 293h-215zM479 453h254l41 321h-254z" />
<glyph unicode="$" horiz-adv-x="1062" d="M102 141l88 181q33 -20 75 -42t113 -47.5t120 -25.5q204 0 204 170q0 23 -5.5 42t-11.5 33t-23 28t-27 21.5t-37.5 19.5t-40.5 17t-49 19q-91 35 -153.5 69.5t-112 79.5t-73.5 103t-24 131q0 117 86 205.5t226 114.5v161h168v-157q93 -10 175 -40t122 -53l-82 -167 q-4 2 -27.5 13t-39.5 18t-45 18t-53 17.5t-55 11.5t-59 5q-77 0 -127.5 -29t-50.5 -91q0 -78 54.5 -124t180.5 -93q165 -65 242.5 -143.5t77.5 -213.5q0 -128 -82 -229.5t-231 -132.5v-201h-168v193q-187 17 -355 118z" />
<glyph unicode="%" horiz-adv-x="1720" d="M82 840q0 167 80 268.5t233 101.5q303 0 303 -356q0 -164 -80.5 -266.5t-234.5 -102.5q-153 0 -227 93t-74 262zM283 852q0 -50 4.5 -87t16 -69t34.5 -48.5t57 -16.5q31 0 51.5 15.5t31.5 45.5t15.5 66t4.5 86q0 105 -24.5 163t-90.5 58q-57 0 -78.5 -55t-21.5 -158z M485 0l562 1202h192l-561 -1202h-193zM1022 348q0 167 79.5 269t233.5 102q301 0 301 -357q0 -165 -79.5 -266.5t-233.5 -101.5q-153 0 -227 92.5t-74 261.5zM1223 360q0 -50 4.5 -87t16 -69t34.5 -48.5t57 -16.5q31 0 51.5 15.5t31.5 45.5t15.5 66t4.5 86q0 105 -24.5 163 t-90.5 58q-57 0 -78.5 -55t-21.5 -158z" />
<glyph unicode="&#x26;" horiz-adv-x="1175" d="M72 346q0 71 21 136t56 114t70.5 84t75.5 63q-47 92 -47 185q0 122 87 206.5t263 84.5q189 0 307 -148l-119 -129q-2 1 -22 18t-37.5 29.5t-49 24.5t-63.5 12q-62 0 -94.5 -28.5t-32.5 -79.5q0 -93 91 -206.5t268 -269.5q39 62 82 162l172 -69q-68 -149 -113 -218 l199 -172l-117 -155l-209 170q-179 -172 -418 -172q-70 0 -135.5 24.5t-118 69t-84.5 113.5t-32 151zM313 377q0 -88 52 -138.5t145 -50.5q107 0 205 95q-224 190 -320 311q-82 -91 -82 -217z" />
<glyph unicode="'" horiz-adv-x="401" d="M102 1386h197l-16 -497h-164z" />
<glyph unicode="(" horiz-adv-x="784" d="M143 551q0 151 31 290t77.5 238.5t107.5 185t113 136.5t103 86l127 -139q-40 -34 -80 -79t-86 -118.5t-80.5 -157.5t-57.5 -201t-23 -243q0 -128 23 -245t57 -201t80 -158t86 -118.5t81 -78.5l-127 -139q-51 35 -103 85.5t-113.5 136.5t-107.5 186t-77 240.5t-31 293.5z " />
<glyph unicode=")" horiz-adv-x="784" d="M145 -252q41 34 81 78.5t86.5 118.5t80.5 158t57 201t23 245q0 126 -23 243t-57.5 201t-81 157.5t-86 118.5t-80.5 79l125 139q51 -35 103 -86t113 -136.5t107.5 -185t77.5 -238.5t31 -290q0 -153 -31 -293.5t-77 -240.5t-107.5 -186t-113.5 -136.5t-103 -85.5z" />
<glyph unicode="*" horiz-adv-x="921" d="M102 1061l62 186l211 -88l-19 227h197l-21 -233l226 94l61 -186l-231 -55l155 -179l-159 -116l-125 202l-127 -204l-160 116l158 183z" />
<glyph unicode="+" horiz-adv-x="1048" d="M123 526v183h305v311h193v-311h305v-183h-305v-323h-193v323h-305z" />
<glyph unicode="," horiz-adv-x="573" d="M82 -182q135 99 135 233q0 45 -19 113t-20 88q5 5 14.5 11t43.5 16t77 10q68 0 103 -41.5t35 -110.5q0 -154 -79.5 -265t-201.5 -173z" />
<glyph unicode="-" horiz-adv-x="784" d="M102 569v170h580v-170h-580z" />
<glyph unicode="." horiz-adv-x="550" d="M123 129q0 69 41 113.5t115 44.5q69 0 108 -42.5t39 -111.5q0 -67 -41 -111.5t-113 -44.5q-69 0 -109 44t-40 108z" />
<glyph unicode="/" horiz-adv-x="854" d="M-20 -258l651 1751h243l-651 -1751h-243z" />
<glyph unicode="0" horiz-adv-x="1153" d="M92 637q0 157 28.5 279.5t87.5 213t155.5 138t226.5 47.5q247 0 359 -163t112 -482q0 -156 -28.5 -279t-87.5 -214.5t-155.5 -140t-226.5 -48.5q-247 0 -359 163.5t-112 485.5zM346 659q0 -89 5.5 -156.5t21 -133.5t41.5 -108.5t70 -68.5t104 -26q63 0 106.5 33.5 t67 99.5t33.5 149t10 197q0 89 -5 156.5t-20.5 133.5t-41.5 108t-70.5 68t-104.5 26q-62 0 -105 -33t-67.5 -98t-34.5 -148.5t-10 -198.5z" />
<glyph unicode="1" horiz-adv-x="788" d="M0 1032q87 36 135 59t125 79t150 135h174v-1305h-234v1032q-146 -136 -258 -168z" />
<glyph unicode="2" horiz-adv-x="1007" d="M72 0l2 193q25 28 143.5 151.5t136.5 142.5q170 196 225.5 287t55.5 191q0 77 -44 124.5t-114 47.5q-31 0 -59.5 -4.5t-63.5 -16t-55.5 -19.5t-69 -29t-69.5 -30l-80 162q256 115 446 115q76 0 138.5 -18t114.5 -57t81 -110t29 -169q0 -124 -79 -251t-253 -317l-188 -207 h555v-186h-852z" />
<glyph unicode="3" d="M72 94l69 170q82 -37 117 -52t90.5 -30.5t100.5 -15.5q101 0 172 61t71 174q0 92 -54.5 151.5t-129.5 59.5q-26 0 -54.5 -2t-52.5 -5.5t-42.5 -7t-33.5 -6.5t-16 -3l-63 160q22 8 72 24.5t72 24t62.5 23.5t59 27.5t45.5 30t39 36.5t21.5 42t9.5 52q0 62 -40.5 95.5 t-113.5 33.5q-22 0 -41.5 -1.5t-41.5 -6t-36 -8t-40.5 -13t-39 -14t-47 -18t-49.5 -19.5l-80 157q117 53 204.5 77t203.5 24q175 0 269.5 -77.5t94.5 -207.5q0 -181 -208 -278q125 -37 196.5 -133.5t71.5 -212.5q0 -65 -14.5 -123.5t-50 -113t-88.5 -94t-135.5 -63.5 t-186.5 -24q-151 0 -383 106z" />
<glyph unicode="4" horiz-adv-x="1075" d="M41 360v132l373 813h239l-358 -768h319v417l232 41v-458h198l-32 -177h-166v-360h-232v360h-573z" />
<glyph unicode="5" horiz-adv-x="1042" d="M92 94l70 170q10 -4 44 -19.5t44 -19.5t38 -15.5t39.5 -15.5t34.5 -11t38 -9.5t34 -5t37 -2.5q116 0 167.5 63t51.5 195q0 105 -55.5 163t-149.5 58q-38 0 -74 -4t-61 -9.5t-48.5 -13t-35.5 -13t-24 -11.5l-13 -6l-96 71l70 646h671l-32 -187h-434l-43 -330q56 39 206 39 q167 0 269 -116t102 -289q0 -84 -23.5 -159t-72 -138.5t-133.5 -101t-197 -37.5q-186 0 -424 108z" />
<glyph unicode="6" horiz-adv-x="1073" d="M92 651q0 108 19 203.5t62 180t106.5 145.5t157.5 96t210 35q130 0 260 -56l-63 -161q-106 36 -205 36q-69 0 -121.5 -22t-84.5 -58t-52.5 -91.5t-28.5 -113t-10 -130.5q111 131 274 131q179 0 282 -113t103 -313q0 -190 -119.5 -311t-332.5 -121q-457 0 -457 663z M342 573q8 -215 59.5 -313t165.5 -98q99 0 148 68.5t49 187.5q0 252 -193 252q-71 0 -137 -35.5t-92 -61.5z" />
<glyph unicode="7" horiz-adv-x="937" d="M10 1305h854v-148l-411 -1157h-252l397 1118h-555z" />
<glyph unicode="8" horiz-adv-x="1073" d="M102 326q0 59 20.5 111.5t59.5 95.5t78.5 74t93.5 65q-98 56 -157.5 140t-59.5 187q0 130 118 223t290 93q162 0 272.5 -88.5t110.5 -218.5q0 -174 -211 -322q106 -58 180 -151t74 -197q0 -156 -124 -253t-312 -97q-121 0 -217 36t-156 114t-60 188zM346 334 q0 -78 55 -131t150 -53q75 0 122.5 53t47.5 127q0 69 -53 136t-127 122q-90 -51 -142.5 -111.5t-52.5 -142.5zM379 1010q0 -145 158 -234q70 39 108.5 91.5t38.5 138.5q0 64 -39.5 105.5t-107.5 41.5q-72 0 -115 -37.5t-43 -105.5z" />
<glyph unicode="9" horiz-adv-x="1071" d="M72 879q0 124 51 220.5t155.5 154t247.5 57.5q455 0 455 -664q0 -108 -19 -203.5t-61.5 -179.5t-106 -145t-157 -96t-209.5 -35q-134 0 -262 55l63 162q113 -37 207 -37q69 0 120.5 22t83.5 58t52.5 91t28.5 112t10 129q-108 -127 -274 -127q-179 0 -282 113t-103 313z M309 881q0 -115 46 -183.5t147 -68.5q23 0 46.5 4.5t44.5 12t39.5 15.5t36 19t28 17.5t22 15t12.5 8.5q-6 215 -58.5 315.5t-164.5 100.5q-100 0 -149.5 -69t-49.5 -187z" />
<glyph unicode=":" horiz-adv-x="591" d="M186 129q0 69 40.5 113.5t113.5 44.5q70 0 109.5 -42.5t39.5 -111.5q0 -68 -40.5 -112t-114.5 -44q-68 0 -108 44t-40 108zM186 885q0 70 40.5 114.5t113.5 44.5q71 0 110 -42t39 -111q0 -68 -40.5 -112t-114.5 -44q-68 0 -108 43.5t-40 106.5z" />
<glyph unicode=";" horiz-adv-x="591" d="M123 -182q135 99 135 233q0 45 -19 113t-20 88q5 5 14.5 11t43 16t75.5 10q69 0 104.5 -41.5t35.5 -110.5q0 -154 -80.5 -265t-202.5 -173zM184 885q0 70 41 114.5t115 44.5q69 0 108 -42t39 -111q0 -67 -40.5 -111.5t-112.5 -44.5q-69 0 -109.5 43.5t-40.5 106.5z" />
<glyph unicode="&#x3c;" horiz-adv-x="931" d="M61 530v168l695 338l82 -190l-398 -178q-46 -22 -125 -54q93 -37 127 -53l408 -186l-82 -191z" />
<glyph unicode="=" horiz-adv-x="1030" d="M143 354v181h744v-181h-744zM143 713v180h744v-180h-744z" />
<glyph unicode="&#x3e;" horiz-adv-x="931" d="M82 375l407 186q82 36 127 53q-59 22 -124 54l-398 178l82 190l694 -338v-168l-706 -346z" />
<glyph unicode="?" horiz-adv-x="886" d="M82 1305q70 32 116 50.5t116 35t135 16.5q389 0 389 -307q0 -46 -14 -94t-29 -81.5t-51 -84.5t-53 -73t-62 -77q-138 -171 -172 -287l-172 48q0 79 30 157t72.5 139t85 116.5t72.5 109.5t30 98q0 74 -43 116t-114 42q-22 0 -42.5 -3t-35.5 -6.5t-39.5 -13.5t-37.5 -16 t-48 -22t-53 -25zM229 129q0 69 40.5 113.5t113.5 44.5q70 0 109.5 -42.5t39.5 -111.5q0 -68 -40.5 -112t-114.5 -44q-68 0 -108 44t-40 108z" />
<glyph unicode="@" horiz-adv-x="1830" d="M113 408q0 161 51 301t137.5 239.5t201 171t242.5 106t261 34.5q115 0 220 -26.5t197 -82.5t160 -136.5t107 -195.5t39 -252q0 -60 -12 -132t-40 -152t-68 -145t-102.5 -107.5t-136.5 -42.5q-201 0 -262 235q-28 -118 -99.5 -176.5t-191.5 -58.5q-169 0 -253.5 121 t-84.5 337q0 211 123 348.5t318 137.5q65 0 155.5 -13t148.5 -27l58 -13v-435q0 -44 1 -76.5t5 -68.5t11 -61t18 -46t28.5 -31.5t40.5 -10.5q46 0 81.5 48.5t53.5 118t26.5 131t8.5 103.5q0 110 -30.5 201.5t-83.5 155.5t-125.5 108t-156.5 65t-177 21q-131 0 -253.5 -45 t-222 -128.5t-160 -217t-60.5 -295.5q0 -94 14.5 -175t53 -159t99.5 -132.5t159.5 -88t226.5 -33.5q72 0 160.5 20t133.5 36t58 22l55 -142q-10 -7 -60 -27t-152 -44.5t-193 -24.5q-115 0 -216.5 21.5t-197.5 75t-164 135.5t-109.5 212t-41.5 296zM709 465q0 -71 5.5 -124 t20 -101t44 -73.5t73.5 -25.5q87 0 150 104.5t63 239.5v275q-77 20 -123 20q-117 0 -175 -85t-58 -230z" />
<glyph unicode="A" horiz-adv-x="1239" d="M-10 0l532 1386h193l534 -1386h-260l-127 362h-500l-131 -362h-241zM428 543h371q-106 302 -185 571q-101 -329 -186 -571z" />
<glyph unicode="B" horiz-adv-x="1157" d="M143 0v1386q12 0 180.5 2.5t231.5 2.5q234 0 359.5 -94.5t125.5 -266.5q0 -98 -55.5 -178.5t-153.5 -130.5q121 -46 186.5 -132.5t65.5 -199.5q0 -182 -136.5 -286.5t-399.5 -104.5q-86 0 -239.5 1t-164.5 1zM387 174h176q133 0 196.5 59.5t63.5 159.5q0 46 -14 85 t-44.5 72.5t-87.5 53t-136 19.5q-117 0 -154 -2v-447zM387 797h158q123 0 181 56t58 148q0 43 -13 79t-41 68t-81 50.5t-125 18.5q-88 0 -137 -3v-417z" />
<glyph unicode="C" horiz-adv-x="1071" d="M96 676q0 219 64.5 380.5t202 255t337.5 93.5q201 0 330 -148l-125 -149q-103 109 -229 109q-85 0 -147.5 -40t-98.5 -112t-53 -163t-17 -204q0 -114 16 -203.5t52.5 -164t103.5 -114.5t162 -40q43 0 90.5 8t78.5 17t59 18t30 10l58 -172l-8 -3q-9 -4 -26.5 -10 t-41 -13.5t-55.5 -15t-67 -13.5t-78.5 -10t-86.5 -4q-272 0 -411.5 176t-139.5 512z" />
<glyph unicode="D" horiz-adv-x="1316" d="M143 0v1386q10 0 169 2.5t233 2.5q684 0 684 -689q0 -706 -711 -706q-100 0 -234.5 2t-140.5 2zM387 180q31 -2 162 -2q212 0 314 125.5t102 376.5q0 528 -449 528q-35 0 -78 -1t-51 -1v-1026z" />
<glyph unicode="E" horiz-adv-x="1050" d="M143 0v1386h824v-184h-580v-387h477l-30 -186h-447v-445h610v-184h-854z" />
<glyph unicode="F" horiz-adv-x="999" d="M143 0v1386h824v-184h-580v-399h477l-30 -185h-447v-618h-244z" />
<glyph unicode="G" horiz-adv-x="1239" d="M88 674q0 162 37 294.5t110 230.5t190 152t269 54q126 0 222 -41t155 -104l-119 -156q-52 52 -129 82.5t-157 30.5q-85 0 -147 -40.5t-98 -113.5t-52.5 -164.5t-16.5 -204.5q0 -244 65.5 -382t205.5 -138q103 0 188.5 86.5t85.5 224.5v187h240v-617q0 -54 -7.5 -102 t-18.5 -85.5t-31.5 -73t-37.5 -60t-47 -51t-50.5 -42t-56.5 -36.5t-55.5 -31t-56.5 -29q-3 -1 -4 -2l-94 162q51 25 91 55.5t65 58t43 65t26.5 62.5t13 66t5 61t0.5 60v29q-45 -86 -136.5 -132t-210.5 -46q-126 0 -220 49t-152 141t-86.5 217t-28.5 283z" />
<glyph unicode="H" horiz-adv-x="1345" d="M143 0v1386h244v-577h571v577h244v-1386h-244v631h-571v-631h-244z" />
<glyph unicode="I" horiz-adv-x="530" d="M143 0v1386h244v-1386h-244z" />
<glyph unicode="J" horiz-adv-x="530" d="M-72 -295q62 30 105 67t64 66.5t32 69.5t12.5 61.5t1.5 57.5v1359h244v-1335q0 -53 -7 -100.5t-18 -84.5t-30.5 -71.5t-37.5 -59.5t-46.5 -50.5t-49.5 -42t-55 -36t-54.5 -31t-55.5 -28.5q-5 -3 -8 -4z" />
<glyph unicode="K" horiz-adv-x="1210" d="M143 0v1386h244v-1386h-244zM414 750v14q181 66 286 220t164 402h240q-32 -150 -71.5 -259.5t-89.5 -185t-100.5 -124.5t-121.5 -96l504 -721h-283z" />
<glyph unicode="L" horiz-adv-x="905" d="M143 0v1386h244v-1202h518v-184h-762z" />
<glyph unicode="M" horiz-adv-x="1660" d="M123 0l82 1391h190l350 -869q81 -197 86 -211q16 41 49 119.5t38 91.5l352 869h186l82 -1391h-227l-23 530l-10 340q-84 -231 -127 -338l-229 -532h-172l-232 526q-44 99 -137 353q-3 -208 -8 -342l-21 -537h-229z" />
<glyph unicode="N" horiz-adv-x="1349" d="M143 0v1391h191l481 -721q38 -55 166 -254q-12 176 -12 246l-6 724h243v-1388h-202l-467 729q-11 17 -172 272q16 -176 16 -274l6 -725h-244z" />
<glyph unicode="O" horiz-adv-x="1368" d="M92 676q0 163 36.5 295t109.5 229.5t190 151t270 53.5q151 0 262 -48t180 -140.5t102.5 -219.5t33.5 -292q0 -162 -36.5 -292t-109.5 -225.5t-189.5 -147.5t-268.5 -52q-580 0 -580 688zM356 698q0 -89 8.5 -161t31.5 -141.5t60.5 -116t99.5 -75t144 -28.5q314 0 314 508 q0 89 -8.5 162t-31.5 144t-60.5 119.5t-99.5 78t-144 29.5q-314 0 -314 -519z" />
<glyph unicode="P" horiz-adv-x="1095" d="M143 0v1386q12 0 180.5 2.5t231.5 2.5q243 0 365 -109.5t122 -308.5q0 -195 -132.5 -312.5t-379.5 -117.5h-143v-543h-244zM387 725h158q123 0 181 65t58 175q0 51 -13 93.5t-41.5 79.5t-81 58t-124.5 21q-88 0 -137 -3v-489z" />
<glyph unicode="Q" horiz-adv-x="1376" d="M88 686q0 157 38.5 287t113.5 227t193.5 151t271.5 54q297 0 437 -183t140 -520q0 -185 -46.5 -342t-126 -265t-182.5 -176t-220 -89q88 -66 202 -66q136 0 351 105l83 -172q-201 -135 -401 -135q-137 0 -284 73t-271 211l45 136q60 -11 94 -11q102 0 192 48t157 136 t106 223.5t39 301.5q0 89 -8.5 162.5t-31.5 145t-60.5 120.5t-99.5 79t-144 30q-86 0 -151.5 -41t-104 -113.5t-57.5 -162t-19 -195.5q0 -198 48.5 -302t176.5 -133l-26 -174q-96 6 -174 44t-129 96t-86 133.5t-50.5 154.5t-15.5 162z" />
<glyph unicode="R" horiz-adv-x="1175" d="M143 0v1386q12 0 180.5 2.5t231.5 2.5q487 0 487 -379q0 -124 -62 -214t-192 -130q32 -18 60.5 -43t56.5 -66t48.5 -74t51 -99.5t48.5 -107.5t57 -133.5t61 -144.5h-264q-1 2 -3 7q-44 103 -64.5 150t-55 122t-53 106t-48 78t-52 64.5t-53 38.5t-62.5 27.5t-70 6.5h-59 v-600h-244zM387 778h158q115 0 177 52t62 151q0 103 -60.5 169.5t-199.5 66.5h-137v-439z" />
<glyph unicode="S" horiz-adv-x="1038" d="M61 121l86 188q-4 0 58 -32.5t147 -65.5t137 -33q106 0 161 53t55 150q0 85 -48.5 130.5t-156.5 88.5q-102 42 -167 78.5t-120.5 87.5t-81 117t-25.5 153q0 153 124.5 261t312.5 108q124 0 239.5 -38.5t161.5 -70.5l-100 -176q1 0 -16.5 9.5t-48 23.5t-67 28t-79 23.5 t-78.5 9.5q-79 0 -130.5 -36.5t-51.5 -106.5q0 -90 57.5 -148.5t187.5 -109.5q70 -28 120 -54t96 -61t73.5 -75.5t43.5 -95t16 -121.5q0 -63 -19 -123.5t-57.5 -114t-92.5 -93.5t-129.5 -63.5t-162.5 -23.5q-223 0 -445 133z" />
<glyph unicode="T" horiz-adv-x="1009" d="M20 1202v184h967l-31 -184h-344v-1202h-241v1202h-351z" />
<glyph unicode="U" horiz-adv-x="1300" d="M123 510v876h242v-858q0 -352 297 -352q136 0 204 91.5t68 260.5v858h244v-876q0 -111 -28.5 -202t-90 -164.5t-169.5 -114.5t-255 -41q-112 0 -200.5 27.5t-146.5 74.5t-95.5 114.5t-53.5 142.5t-16 163z" />
<glyph unicode="V" horiz-adv-x="1191" d="M-16 1386h260l172 -495q70 -203 184 -563q84 276 184 559l179 499h247l-518 -1386h-190z" />
<glyph unicode="W" horiz-adv-x="1779" d="M20 1386h244l180 -694q49 -189 68 -291q23 98 82 287l217 698h182l217 -698q60 -196 82 -301q16 123 64 301l180 698h248l-385 -1386h-180l-275 842q-32 90 -49 164q-21 -90 -43 -164l-266 -842h-180z" />
<glyph unicode="X" horiz-adv-x="1191" d="M0 0l430 727l-389 659h276l195 -350q82 -159 84 -164q25 48 86 162l197 352h274l-391 -661l430 -725h-279l-229 410q-59 110 -88 168l-86 -168l-229 -410h-281z" />
<glyph unicode="Y" horiz-adv-x="1110" d="M0 1386h264l291 -628l297 628h258l-436 -866v-520h-244v530z" />
<glyph unicode="Z" horiz-adv-x="1081" d="M82 0v145l602 1057q-82 -6 -176 -6h-391l-33 190h901v-145l-590 -1055q94 4 152 4h463v-190h-928z" />
<glyph unicode="[" horiz-adv-x="755" d="M164 -381v1856h467v-181h-244v-1495h244v-180h-467z" />
<glyph unicode="\" horiz-adv-x="854" d="M-20 1493h243l651 -1751h-243z" />
<glyph unicode="]" horiz-adv-x="755" d="M125 -201h244v1495h-244v181h467v-1856h-467v180z" />
<glyph unicode="^" horiz-adv-x="1107" d="M102 645l367 741h170l367 -741l-220 -24l-180 395l-51 125q-12 -31 -53 -125l-189 -410z" />
<glyph unicode="_" d="M0 -164h1024v-170h-1024v170z" />
<glyph unicode="`" d="M137 1450l156 145l348 -387l-98 -106q-10 6 -27.5 17t-68 47.5t-98 74.5t-107.5 95.5t-105 113.5z" />
<glyph unicode="a" horiz-adv-x="1097" d="M72 496q0 235 136 387.5t353 152.5q30 0 63.5 -2.5t64.5 -6t64.5 -9t60 -10.5t53 -10.5t43 -9.5t31 -7.5t15.5 -3.5v-483q0 -91 10 -169t25 -125.5t29.5 -81.5t24.5 -48l10 -13l-183 -73l-10.5 10.5t-23 30.5t-30 51t-25.5 70.5t-15 89.5q-34 -125 -112 -186.5 t-207 -61.5q-187 0 -282 135.5t-95 372.5zM324 516q0 -55 2 -94t7 -84t16.5 -75.5t28.5 -57.5t45 -40t64 -13q65 0 120 59t85.5 151t30.5 193v295q-74 22 -135 22q-75 0 -127.5 -26t-81.5 -75t-42 -111t-13 -144z" />
<glyph unicode="b" horiz-adv-x="1089" d="M133 47v1397l234 41v-625q78 176 274 176q187 0 282 -135.5t95 -372.5q0 -235 -136.5 -387.5t-353.5 -152.5q-73 0 -171.5 15t-160.5 29zM367 172q83 -20 135 -20q75 0 127.5 26t81.5 75t42 111t13 144q0 66 -2.5 112t-12 97.5t-26.5 82.5t-48 51.5t-75 20.5 q-65 0 -120 -59t-85 -151t-30 -193v-297z" />
<glyph unicode="c" horiz-adv-x="839" d="M72 485q0 262 132 410.5t337 148.5q177 0 276 -139l-131 -125q-27 29 -42 43t-43.5 27.5t-61.5 13.5q-30 0 -55 -5t-56.5 -26t-52.5 -56.5t-36 -102.5t-15 -158q0 -92 14.5 -160t36.5 -105.5t54 -60.5t59.5 -29.5t60.5 -6.5q63 0 201 41l57 -148q-1 0 -8 -3.5t-14.5 -6.5 t-20.5 -8.5t-27 -9.5t-32 -9.5t-39 -9.5t-44 -7t-49.5 -5t-54.5 -2q-116 0 -202.5 35.5t-139 102t-78.5 157t-26 204.5z" />
<glyph unicode="d" horiz-adv-x="1097" d="M72 496q0 235 136 387.5t353 152.5q66 0 162 -14v463l233 -41v-950q0 -67 5 -126t13.5 -101t18.5 -77t20.5 -58.5t19 -38.5t15 -25t7.5 -11l-183 -73q-92 92 -104 252q-34 -125 -112 -186.5t-207 -61.5q-187 0 -282 135.5t-95 372.5zM324 516q0 -54 2 -93t7 -84.5 t16.5 -75.5t28.5 -56.5t45 -39.5t64 -13q98 0 167 122.5t69 278.5v295q-74 22 -135 22q-75 0 -127.5 -26t-81.5 -75t-42 -111t-13 -144z" />
<glyph unicode="e" horiz-adv-x="968" d="M72 485q0 265 138 412t355 147q174 0 258 -79.5t84 -210.5q0 -152 -162.5 -259t-425.5 -110q12 -107 63.5 -169t164.5 -62q53 0 125.5 18t119.5 36l46 17l61 -145q-7 -4 -20.5 -10t-55 -22.5t-84.5 -29t-105 -22.5t-120 -10q-227 0 -334.5 132t-107.5 367zM313 532 q93 4 165.5 25.5t113.5 54t61.5 68.5t20.5 74q0 60 -35 95.5t-92 35.5q-64 0 -111 -30.5t-72.5 -84t-37 -111.5t-13.5 -127z" />
<glyph unicode="f" horiz-adv-x="720" d="M0 -301q59 30 101 67t63 68.5t33 71.5t14 65t2 58v825h-184v166h178q-14 57 -14 125q0 158 105 246t259 88q136 0 215 -86l-100 -133q-9 9 -42 23.5t-57 14.5t-46.5 -6t-49 -21.5t-43 -50.5t-16.5 -85q0 -52 16 -115h254l-29 -166h-213v-803q0 -68 -12 -127t-28.5 -101.5 t-47.5 -82.5t-55.5 -64.5t-67.5 -52.5t-68.5 -42t-72.5 -38z" />
<glyph unicode="g" horiz-adv-x="1087" d="M72 496q0 235 136 387.5t353 152.5q166 0 402 -59l-11 -563v-10q0 -82 30 -206q32 -132 32 -212q0 -211 -109 -320.5t-301 -109.5q-106 0 -221.5 32t-153.5 54l58 178q3 -1 35 -13.5t42 -16t39.5 -14.5t46.5 -15l42.5 -10t47.5 -8.5t44 -2.5q109 0 163 66.5t54 179.5 q0 106 -45 215q-72 -213 -307 -213q-187 0 -282 135.5t-95 372.5zM324 516q0 -55 2 -94t7 -84t16.5 -75.5t28.5 -57.5t45 -40t64 -13q95 0 165.5 118.5t70.5 268.5v311q-74 22 -135 22q-75 0 -127.5 -26t-81.5 -75t-42 -111t-13 -144z" />
<glyph unicode="h" horiz-adv-x="1105" d="M133 0v1444l234 41v-596q110 147 317 147q299 0 299 -352v-684h-233v668q0 186 -136 186q-91 0 -169 -90t-78 -223v-541h-234z" />
<glyph unicode="i" horiz-adv-x="524" d="M102 1329q0 65 37.5 105.5t106.5 40.5q63 0 99 -38.5t36 -101.5q0 -64 -37 -103.5t-104 -39.5q-64 0 -101 39t-37 98zM125 223v797h233v-776q0 -44 14 -62t44 -18l53 4l25 -148q-50 -28 -146 -28q-105 0 -164 63.5t-59 167.5z" />
<glyph unicode="j" horiz-adv-x="499" d="M-80 -301q58 30 100 67t63 69t33 71t14.5 64t2.5 57v993h234v-971q0 -68 -12 -127t-28.5 -101t-48.5 -82t-55.5 -63.5t-68.5 -53t-68 -42t-72 -37.5zM111 1329q0 65 37 105.5t104 40.5q65 0 101 -38.5t36 -101.5q0 -64 -37.5 -103.5t-105.5 -39.5q-63 0 -99 39t-36 98z " />
<glyph unicode="k" horiz-adv-x="1064" d="M133 0v1444l234 41v-584q111 137 315 137q131 0 216 -73t85 -197q0 -49 -13.5 -93t-35.5 -74.5t-48 -56t-52 -41.5t-48 -26.5t-36 -14.5l-13 -5l287 -457h-264l-295 510l-2 20q28 6 65 19t91 39.5t90 69.5t36 94q0 59 -34 89.5t-93 30.5q-58 0 -105 -21t-73 -49.5 t-43.5 -61.5t-23.5 -54t-6 -29v-657h-234z" />
<glyph unicode="l" horiz-adv-x="595" d="M123 221v1223l233 43v-1243q0 -45 18 -64.5t54 -19.5q24 0 51.5 4t42.5 8l15 4l28 -147q-84 -37 -215 -37q-112 0 -169.5 62.5t-57.5 166.5z" />
<glyph unicode="m" horiz-adv-x="1656" d="M51 952l185 74q8 -9 21.5 -25.5t40.5 -74t38 -121.5q48 117 140 174t202 57q187 0 250 -190q53 97 138.5 143.5t186.5 46.5q152 0 216.5 -91.5t64.5 -260.5v-684h-231v668q0 186 -119 186q-83 0 -154.5 -88t-71.5 -221v-545h-231v668q0 186 -119 186q-88 0 -155.5 -96 t-67.5 -250v-508h-233v516q0 91 -10.5 169.5t-25 125.5t-29.5 80.5t-25 46.5z" />
<glyph unicode="n" horiz-adv-x="1124" d="M51 952l185 74q3 -3 8.5 -9t20 -27t26.5 -44.5t25.5 -61.5t19.5 -79q51 117 148.5 174t215.5 57q153 0 226 -92t73 -260v-684h-231v662q0 190 -135 190q-98 0 -173 -96t-75 -250v-506h-233v516q0 91 -10.5 169.5t-25 125.5t-29.5 80.5t-25 46.5z" />
<glyph unicode="o" horiz-adv-x="1058" d="M72 500q0 158 50.5 278.5t157.5 193t259 72.5q229 0 338.5 -135t109.5 -387q0 -117 -29.5 -214.5t-86 -171t-146.5 -115t-205 -41.5q-229 0 -338.5 134.5t-109.5 385.5zM324 520q0 -82 9.5 -144t32.5 -115t67 -81t108 -28q57 0 96.5 26t60 76t29 109t8.5 139 q0 83 -9.5 145.5t-32.5 115.5t-67 81t-108 28q-57 0 -96.5 -26t-60 -76.5t-29 -110t-8.5 -139.5z" />
<glyph unicode="p" horiz-adv-x="1107" d="M51 952l185 74q3 -3 9 -10t21.5 -29.5t28 -48.5t25.5 -67t18 -85q34 125 112 187.5t209 62.5q187 0 281 -135t94 -373q0 -235 -135.5 -387.5t-353.5 -152.5q-54 0 -160 12v-412l-233 -41v969q0 91 -10.5 169.5t-25 125.5t-29.5 80.5t-25 46.5zM385 174q74 -22 133 -22 q75 0 128.5 26t82.5 75t42 111t13 144q0 55 -2 94t-7 84t-16.5 75.5t-28.5 57.5t-45 40t-64 13q-65 0 -120 -59t-85.5 -151t-30.5 -193v-295z" />
<glyph unicode="q" horiz-adv-x="1089" d="M72 496q0 235 136 387.5t353 152.5q73 0 171.5 -15t161.5 -29l62 -15v-1432l-233 43v539q-83 -139 -274 -139q-187 0 -282 135.5t-95 372.5zM324 516q0 -54 2 -93t7 -84.5t16.5 -75.5t28.5 -56.5t45 -39.5t64 -13q97 0 166.5 122.5t69.5 278.5v295q-74 22 -135 22 q-75 0 -127.5 -26t-81.5 -75t-42 -111t-13 -144z" />
<glyph unicode="r" horiz-adv-x="755" d="M51 952l185 74q8 -8 21 -24.5t39.5 -72t37.5 -118.5q78 223 295 223q10 0 21 -1t21 -2t19.5 -2.5t18 -3.5t16 -4t13.5 -3.5l10 -2.5t6 -2l2 -1l-66 -228l-20 10q-34 13 -80 13q-78 0 -141.5 -71t-63.5 -175v-561h-233v516q0 91 -10.5 169.5t-25 125.5t-29.5 80.5 t-25 46.5z" />
<glyph unicode="s" horiz-adv-x="843" d="M49 78l76 172q-1 0 16.5 -10t47 -24.5t64 -29t73 -24.5t67.5 -10q70 0 106 27.5t36 76.5q0 55 -39 99t-113 71q-157 59 -226 136t-69 196q0 118 99.5 202t246.5 84q72 0 151.5 -20t122.5 -40l44 -19l-70 -160q-15 8 -40.5 19t-90 29.5t-111.5 18.5q-48 0 -81 -24t-33 -66 q0 -117 170 -182q141 -54 207.5 -123t66.5 -192t-97.5 -214t-258.5 -91q-29 0 -60 3.5t-59 9t-56 13t-52 16t-46 16.5t-38.5 15.5t-29 13t-18.5 8.5z" />
<glyph unicode="t" horiz-adv-x="739" d="M20 854v166h185l41 240l192 43v-283h252l-28 -166h-224v-606q0 -84 92 -84q35 0 75 7t63 15l22 7l39 -154l-3 -1q-4 -2 -11.5 -5t-18 -6.5t-25 -7t-31 -7.5t-36.5 -7.5t-41.5 -6.5t-46 -4.5t-49.5 -1.5q-262 0 -262 229v633h-185z" />
<glyph unicode="u" horiz-adv-x="1124" d="M123 340v680h233v-676q0 -184 136 -184q96 0 171.5 102t75.5 258v500h234v-526q0 -91 10 -169t24.5 -125.5t29 -81.5t24.5 -48l10 -13l-182 -73l-9 9t-21.5 27.5t-28.5 46t-26 63.5t-18 81q-53 -114 -150 -168.5t-214 -54.5q-299 0 -299 352z" />
<glyph unicode="v" horiz-adv-x="1073" d="M123 340v680h233v-674q0 -192 136 -192q71 0 122 53.5t78.5 147t40 200t12.5 231.5q0 32 -2.5 67.5t-5.5 64.5t-6 52.5t-5.5 37t-2.5 12.5h238l1 -4q0 -3 2 -10t3 -16.5t2.5 -22t3 -26t3 -29.5t3 -32.5t2 -34t0.5 -34.5q0 -301 -61 -482.5t-181.5 -260t-316.5 -78.5 q-299 0 -299 350z" />
<glyph unicode="w" horiz-adv-x="1579" d="M123 334v686h233v-668q0 -92 33 -145t103 -53q98 0 147 94t49 303v469h232q-5 -537 -5 -668q0 -91 34.5 -144.5t105.5 -53.5q35 0 63 13.5t48 42.5t34.5 61t23.5 83t15 94.5t8.5 108.5t3 111.5t0.5 117.5q0 132 -22 234h237v-4q1 -3 2.5 -9.5t3 -16t3 -22t3.5 -26 t3.5 -29.5t3 -32.5t2 -34.5t0.5 -35q0 -232 -25 -385.5t-85 -253.5t-154.5 -143t-237.5 -43q-200 0 -272 164q-38 -87 -103 -125.5t-188 -38.5q-299 0 -299 348z" />
<glyph unicode="x" horiz-adv-x="983" d="M-10 0l342 541l-299 479h270l129 -211q15 -25 74 -150q51 75 90 146q13 25 25.5 50t21.5 46t17 40t13 33.5t8.5 25t4.5 15.5l2 5h242l-2 -6q-2 -5 -6 -17t-10 -27.5t-15 -38t-20 -46.5t-26 -55t-32 -62q-60 -110 -168 -229l332 -539h-266l-152 264l-80 150l-79 -152 l-154 -262h-262z" />
<glyph unicode="y" horiz-adv-x="1101" d="M123 340v680h233v-674q0 -184 136 -184q86 0 165.5 89t79.5 214v555h240l-10 -606v-5q0 -82 30 -210q31 -132 31 -213q0 -211 -109 -320.5t-301 -109.5q-107 0 -221.5 32t-152.5 54l57 178l23 -10q24 -9 28.5 -10.5t27 -10t30.5 -11t29 -9.5t32.5 -10t30.5 -7.5t33 -6.5 t31 -3.5t32 -1.5q109 0 163 66.5t54 179.5q0 99 -41 202q-54 -102 -147.5 -151t-204.5 -49q-299 0 -299 352z" />
<glyph unicode="z" horiz-adv-x="856" d="M61 0v139l453 717q-105 -6 -207 -6h-201l-28 170h708v-139l-446 -717q92 6 184 6h281v-170h-744z" />
<glyph unicode="{" horiz-adv-x="745" d="M123 461v168q71 15 107 68t36 134q0 57 -14 198t-14 218q0 108 76 172t214 64q76 0 174 -25l-45 -172q-62 19 -90 19q-51 0 -73.5 -29t-22.5 -62q0 -64 13.5 -183.5t13.5 -170.5q0 -104 -34.5 -179.5t-135.5 -137.5q101 -60 135.5 -136t34.5 -178q0 -51 -13.5 -170.5 t-13.5 -183.5q0 -34 22.5 -62t73.5 -28q31 0 90 18l45 -172q-95 -24 -174 -24q-138 0 -214 63.5t-76 171.5q0 77 14 218t14 198q0 81 -36.5 134.5t-106.5 68.5z" />
<glyph unicode="|" horiz-adv-x="632" d="M205 -258v1751h223v-1751h-223z" />
<glyph unicode="}" horiz-adv-x="745" d="M41 -369l47 172q56 -18 90 -18q51 0 73.5 28t22.5 62q0 64 -13 183.5t-13 170.5q0 102 34.5 178t135.5 136q-101 62 -135.5 137.5t-34.5 179.5q0 51 13 170.5t13 183.5q0 33 -22.5 62t-73.5 29q-31 0 -90 -19l-47 172q103 25 176 25q137 0 213 -64t76 -172 q0 -77 -14.5 -218t-14.5 -198q0 -81 36.5 -134t107.5 -68v-168q-71 -15 -107.5 -68.5t-36.5 -134.5q0 -57 14.5 -198t14.5 -218q0 -108 -76 -171.5t-213 -63.5q-77 0 -176 24z" />
<glyph unicode="~" horiz-adv-x="1056" d="M102 631q3 7 9.5 18t30 40t50.5 51.5t71.5 40.5t92.5 18q44 0 84 -12.5t70 -30.5t58.5 -36.5t62 -31t67.5 -12.5q58 0 89 19t81 75l86 -94q-3 -7 -9.5 -18.5t-30.5 -40.5t-51 -51.5t-71.5 -41t-93.5 -18.5q-44 0 -83.5 12.5t-69.5 31t-58.5 36.5t-62 30.5t-68.5 12.5 q-57 0 -86 -18.5t-82 -75.5z" />
<glyph unicode="&#xa1;" horiz-adv-x="653" d="M135 885q0 64 40 107.5t108 43.5q74 0 114.5 -44t40.5 -111q0 -69 -39.5 -111.5t-109.5 -42.5q-73 0 -113.5 44.5t-40.5 113.5zM188 -373v936h201l60 -936h-261z" />
<glyph unicode="&#xa2;" horiz-adv-x="937" d="M113 635q0 231 105 366t278 162v176h159v-178q134 -24 211 -131l-133 -127q-45 49 -78 66v-645q30 4 66.5 13.5t56.5 15.5t19 5l57 -147l-2 -1q-3 -2 -8.5 -4.5t-13.5 -5.5t-19 -7t-23.5 -8t-27.5 -8.5t-31.5 -8t-35.5 -7t-38 -5.5v-242h-159v238q-383 35 -383 483z M358 666q0 -276 138 -332v645q-138 -39 -138 -313z" />
<glyph unicode="&#xa3;" horiz-adv-x="1153" d="M123 514v184h151l15 181q14 193 131.5 308.5t306.5 115.5q197 0 322 -93l-99 -178l-10 8q-9 7 -28 19t-43 24t-58.5 20.5t-69.5 8.5q-186 0 -209 -219l-20 -195h373l-29 -184h-364l-9 -80q-17 -150 -86 -254q83 13 152 13q39 0 115 -6.5t116 -6.5q37 0 85.5 12t78.5 24 l29 11l69 -172q1 0 -13 -7t-39.5 -16.5t-57.5 -19.5t-72.5 -17t-77.5 -7q-65 0 -164 12t-141 12q-71 0 -141.5 -4t-105.5 -8l-35 -4l-58 137q4 3 11 8t24.5 25t31.5 44t27.5 65.5t16.5 89.5l12 149h-137z" />
<glyph unicode="&#xa4;" horiz-adv-x="1204" d="M61 129l177 158q-93 123 -93 293q0 168 97 292l-176 160l139 139l170 -188q104 55 227 55q129 0 229 -53l168 186l142 -139l-178 -160q96 -123 96 -292q0 -168 -96 -291l180 -160l-139 -139l-173 188q-107 -55 -233 -55q-127 0 -227 53l-170 -186zM319 590 q0 -132 79 -223t200 -91q127 0 207 83.5t80 213.5q0 133 -80.5 223.5t-206.5 90.5q-123 0 -201 -84t-78 -213z" />
<glyph unicode="&#xa5;" horiz-adv-x="1212" d="M61 1305h265l278 -564l287 564h258l-344 -607h168v-180h-250v-127h250v-180h-250v-211h-244v211h-246v180h246v127h-246v180h168z" />
<glyph unicode="&#xa6;" horiz-adv-x="632" d="M205 -258v766h223v-766h-223zM205 723v770h223v-770h-223z" />
<glyph unicode="&#xa7;" horiz-adv-x="1142" d="M102 502q0 64 21.5 117t58.5 89t71 58.5t73 38.5q-80 100 -80 209q0 129 95.5 216t250.5 87q32 0 64.5 -3.5t56 -8.5t49 -12.5t39.5 -13t30.5 -12t18.5 -7.5l-72 -160q-86 45 -180 45q-117 0 -117 -109q0 -37 18 -71.5t54.5 -67.5t71 -59t90 -64.5t88.5 -64.5 q98 -76 152.5 -155t54.5 -183q0 -51 -15.5 -96t-38.5 -76.5t-54.5 -59t-58.5 -43t-57 -28.5q80 -100 80 -207q0 -129 -95.5 -216t-250.5 -87q-60 0 -123 13.5t-95.5 26t-39.5 17.5l72 160q90 -45 180 -45q117 0 117 108q0 43 -24.5 82.5t-68.5 76t-90.5 69t-106 75.5 t-99.5 80q-140 133 -140 281zM340 528q0 -35 17.5 -69.5t54 -69.5t70 -62t88.5 -68.5t87 -68.5q47 17 81 54.5t34 101.5q0 35 -17.5 68.5t-54.5 69t-69.5 62t-89.5 69t-88 67.5q-113 -42 -113 -154z" />
<glyph unicode="&#xa8;" d="M180 1290q0 59 34 96t95 37q59 0 92 -36t33 -93q0 -58 -34.5 -94.5t-96.5 -36.5q-57 0 -90 36.5t-33 90.5zM588 1290q0 59 34 96t97 37q59 0 92 -36t33 -93q0 -58 -34.5 -94.5t-96.5 -36.5q-58 0 -91.5 36t-33.5 91z" />
<glyph unicode="&#xa9;" horiz-adv-x="1601" d="M92 696q0 205 91.5 367t254.5 252t369 90q205 0 365.5 -90t248.5 -251.5t88 -367.5q0 -205 -92 -367t-255 -251.5t-369 -89.5q-205 0 -365 90t-248 251t-88 367zM266 709q0 -157 67.5 -288t190.5 -207.5t275 -76.5q235 0 384.5 153t149.5 392q0 159 -66.5 289.5t-189 207 t-276.5 76.5q-235 0 -385 -153.5t-150 -392.5zM506 692q0 195 88 309.5t262 114.5q119 0 195 -80l-101 -108q-52 39 -110 39q-142 0 -142 -262q0 -117 38 -190t114 -73q72 0 139 27l45 -135q-6 -4 -30.5 -12.5t-75.5 -18.5t-103 -10q-158 0 -238.5 101.5t-80.5 297.5z" />
<glyph unicode="&#xaa;" horiz-adv-x="819" d="M72 1038q0 160 95 263.5t245 103.5q31 0 70.5 -4t75 -9.5t66 -11.5t49 -10t17.5 -4v-332q0 -95 17 -169t34 -101l17 -27l-135 -53q-6 5 -16 15t-31.5 43t-32.5 69q-53 -125 -201 -125q-134 0 -202 94t-68 258zM270 1051q0 -51 3 -87t12 -72.5t29 -55.5t51 -19 q59 0 101 88t42 199v162q-75 12 -78 12q-88 0 -124 -59.5t-36 -167.5z" />
<glyph unicode="&#xab;" horiz-adv-x="1161" d="M102 502q70 89 180.5 200t185.5 178l75 66l96 -110l-266 -334l266 -334l-96 -111q-32 27 -83 73t-169.5 164.5t-188.5 207.5zM553 502q69 89 178.5 200t184.5 178l75 66l96 -110l-266 -334l266 -334l-96 -111q-11 10 -31 27.5t-77 70.5t-109 104t-114.5 119t-106.5 124z " />
<glyph unicode="&#xac;" horiz-adv-x="1046" d="M102 629v180h840v-436h-176v256h-664z" />
<glyph unicode="&#xad;" horiz-adv-x="784" d="M102 569v170h580v-170h-580z" />
<glyph unicode="&#xae;" horiz-adv-x="1196" d="M123 930q0 209 134.5 342t344.5 133q209 0 340 -132.5t131 -342.5q0 -208 -135.5 -341.5t-343.5 -133.5q-209 0 -340 132.5t-131 342.5zM256 936q0 -154 96 -259.5t242 -105.5q151 0 246.5 97.5t95.5 251.5q0 155 -96 259.5t-246 104.5q-148 0 -243 -97.5t-95 -250.5z M428 666v522q4 0 67.5 1t86.5 1q188 0 188 -146q0 -73 -80 -120q32 -10 52.5 -50.5t66.5 -166.5l-102 -37q-52 137 -78 175.5t-82 41.5h-10v-221h-109zM537 950q23 0 47 4q45 9 59 26t14 56q0 37 -21 62.5t-69 25.5h-30v-174z" />
<glyph unicode="&#xaf;" d="M184 1229v170h660v-170h-660z" />
<glyph unicode="&#xb0;" horiz-adv-x="634" d="M82 1237q0 103 67.5 171.5t169.5 68.5t168 -68.5t66 -171.5q0 -102 -68 -170t-170 -68t-167.5 67.5t-65.5 170.5zM213 1239q0 -55 27.5 -89t76.5 -34q51 0 79 32t28 89q0 55 -28.5 89t-78.5 34q-49 0 -76.5 -32t-27.5 -89z" />
<glyph unicode="&#xb1;" horiz-adv-x="1050" d="M123 66v180h307v280h-305v183h305v311h193v-311h305v-183h-305v-280h303v-180h-803z" />
<glyph unicode="&#xb2;" horiz-adv-x="649" d="M72 1325q72 39 131 59.5t123 20.5q106 0 165.5 -48t59.5 -145q0 -74 -44.5 -146.5t-135.5 -166.5q-28 -28 -84 -68h278v-143h-491v146q81 59 151 137q82 87 112 132.5t30 90.5q0 72 -58 72q-15 0 -32 -3.5t-33 -9.5t-30.5 -12.5t-28 -14.5t-22.5 -13.5t-17 -11t-9 -5.5z " />
<glyph unicode="&#xb3;" horiz-adv-x="671" d="M72 743l53 125q10 -6 28 -15t64.5 -24.5t83.5 -15.5q40 0 69 25t29 73q0 39 -19 63.5t-54 24.5q-30 0 -58 -3t-40 -6l-13 -3l-43 107q15 5 48.5 12.5t54 14t44.5 18t36 29t12 42.5q0 23 -14.5 39.5t-37.5 16.5q-47 0 -165 -52l-62 129q75 32 129 47t117 15 q102 0 157.5 -46.5t55.5 -123.5q0 -91 -90 -150q58 -25 89.5 -70t31.5 -102q0 -47 -14.5 -88t-44.5 -76t-84.5 -55t-127.5 -20q-107 0 -235 69z" />
<glyph unicode="&#xb4;" d="M365 1208l348 387l155 -145q-72 -89 -172.5 -176t-165.5 -130l-65 -42z" />
<glyph unicode="&#xb5;" horiz-adv-x="1134" d="M133 -455v1475h234v-684q0 -77 47 -126.5t118 -49.5q85 0 151.5 86.5t66.5 216.5v557h233v-526q0 -77 7 -143.5t16.5 -109.5t22.5 -80t23 -55t19 -33t10 -16l-182 -73q-69 55 -98 192q-75 -188 -269 -188q-94 0 -165 49v-449z" />
<glyph unicode="&#xb6;" horiz-adv-x="1183" d="M123 969q0 200 121.5 311t349.5 111v-848q-230 0 -350.5 113.5t-120.5 312.5zM582 -295q52 25 90.5 53t61 58.5t36.5 55.5t19.5 57.5t6.5 50t1 47.5v1359h241v-1335q0 -53 -7 -100.5t-18 -84.5t-30.5 -71.5t-37.5 -59.5t-46.5 -50.5t-49.5 -42t-55 -36t-54.5 -31 t-55.5 -28.5q-5 -3 -8 -4z" />
<glyph unicode="&#xb7;" horiz-adv-x="509" d="M102 647q0 69 41 113.5t115 44.5q69 0 108.5 -42.5t39.5 -111.5q0 -67 -41 -111t-113 -44q-70 0 -110 43.5t-40 107.5z" />
<glyph unicode="&#xb8;" d="M305 -412l33 111q84 -27 131 -27q102 0 102 64q0 43 -59 66.5t-129 23.5l45 180h133l-22 -102q83 -6 133.5 -48t50.5 -114q0 -54 -21.5 -92.5t-58 -58.5t-76.5 -28.5t-86 -8.5q-87 0 -176 34z" />
<glyph unicode="&#xb9;" horiz-adv-x="544" d="M20 1237q-3 -3 41 14.5t108.5 54.5t109.5 80h120v-698h-168v516q-64 -61 -139 -96z" />
<glyph unicode="&#xba;" horiz-adv-x="837" d="M92 1032q0 167 85.5 270t248.5 103t241 -92.5t78 -263.5q0 -164 -85 -266.5t-246 -102.5q-164 0 -243 92t-79 260zM291 1047q0 -70 10 -117.5t41.5 -80t85.5 -32.5q67 0 93 57.5t26 163.5q0 108 -29 169t-106 61q-47 0 -74.5 -30t-37 -76t-9.5 -115z" />
<glyph unicode="&#xbb;" horiz-adv-x="1161" d="M72 168l266 334l-266 334l98 110q31 -27 82 -73t168.5 -164t187.5 -207q-70 -89 -179.5 -200.5t-184.5 -177.5l-74 -67zM522 168l266 334l-266 334l96 110q32 -27 83 -73t169 -164t187 -207q-69 -89 -179 -200.5t-185 -177.5l-75 -67z" />
<glyph unicode="&#xbc;" horiz-adv-x="1456" d="M10 1051q-1 -1 16 5t45 19t61 30t70 42.5t66 52.5h121v-698h-168v516q-64 -61 -139 -96zM283 0l561 1202h190l-559 -1202h-192zM834 190v80l184 447h168l-170 -400h139v189l170 41v-230h100l-20 -127h-80v-190h-170v190h-321z" />
<glyph unicode="&#xbd;" horiz-adv-x="1484" d="M10 1051q-1 -1 16 5t45 19t61 30t70 42.5t66 52.5h121v-698h-168v516q-64 -61 -139 -96zM283 0l561 1202h190l-559 -1202h-192zM907 635q142 80 254 80q105 0 165 -47.5t60 -143.5q0 -75 -45.5 -148.5t-136.5 -164.5q-33 -33 -82 -68h279v-143h-492v145q82 58 152 138 q81 89 111 133.5t30 89.5q0 69 -57 69q-13 0 -28 -2.5t-28.5 -7t-28 -10.5t-25.5 -11.5t-22.5 -12t-18.5 -10.5t-14 -9l-7 -4z" />
<glyph unicode="&#xbe;" horiz-adv-x="1611" d="M12 541l54 125q10 -6 28 -15.5t64.5 -25t83.5 -15.5q40 0 70 25.5t30 73.5q0 39 -19.5 63.5t-56.5 24.5q-30 0 -57.5 -3.5t-40.5 -6.5l-12 -3l-43 107q14 4 48 12t54 14.5t44 18t36 29.5t12 43q0 23 -13.5 39t-35.5 16q-49 0 -168 -51l-59 129q71 31 125 46t118 15 q102 0 158.5 -46.5t56.5 -123.5q0 -91 -92 -149q58 -25 90.5 -70t32.5 -102q0 -47 -14 -88t-44.5 -76t-85 -55.5t-128.5 -20.5q-106 0 -236 70zM387 0l559 1202h193l-561 -1202h-191zM940 170v82l186 444h168l-170 -397h138v188l170 41v-229h100l-21 -129h-79v-170h-170v170 h-322z" />
<glyph unicode="&#xbf;" horiz-adv-x="888" d="M49 -86q0 46 14 94t29 81.5t51 84.5t53 73t62 77q139 172 172 286l172 -47q0 -79 -30 -157t-72.5 -139t-85.5 -116.5t-73 -109.5t-30 -98q0 -74 43 -116t115 -42q22 0 42.5 3t35.5 6.5t39.5 13.5t37.5 16t48 22t53 25l80 -162q-70 -32 -116 -50.5t-116 -35t-135 -16.5 q-389 0 -389 307zM354 881q0 67 41 111t115 44q68 0 107.5 -43.5t39.5 -107.5q0 -69 -40.5 -113.5t-112.5 -44.5q-71 0 -110.5 42.5t-39.5 111.5z" />
<glyph unicode="&#xc0;" horiz-adv-x="1239" d="M-10 0l532 1386h193l534 -1386h-260l-127 362h-500l-131 -362h-241zM92 1733l107 168l465 -312l-58 -119l-18 6q-17 5 -50 16t-73.5 26.5t-90 38t-97 48t-97 59t-88.5 69.5zM428 543h371q-106 302 -185 571q-101 -329 -186 -571z" />
<glyph unicode="&#xc1;" horiz-adv-x="1239" d="M-10 0l532 1386h193l534 -1386h-260l-127 362h-500l-131 -362h-241zM428 543h371q-106 302 -185 571q-101 -329 -186 -571zM555 1589l465 312l106 -168q-39 -36 -88.5 -69.5t-97 -59t-97 -48t-90 -38t-73.5 -26.5t-50 -16l-18 -6z" />
<glyph unicode="&#xc2;" horiz-adv-x="1239" d="M-10 0l532 1386h193l534 -1386h-260l-127 362h-500l-131 -362h-241zM209 1579l405 322l406 -322l-90 -109q3 -3 -41.5 18.5t-123.5 67.5t-151 99q-73 -53 -151.5 -99t-122.5 -67.5t-41 -18.5zM428 543h371q-106 302 -185 571q-101 -329 -186 -571z" />
<glyph unicode="&#xc3;" horiz-adv-x="1239" d="M-10 0l532 1386h193l534 -1386h-260l-127 362h-500l-131 -362h-241zM281 1556v152q8 5 22 13t56 21t83 13q50 0 157 -20.5t157 -20.5q41 0 82 7t62 15l20 7v-152q-8 -5 -22.5 -13t-57.5 -21t-84 -13q-50 0 -157 20.5t-157 20.5q-41 0 -81 -7.5t-60 -14.5zM428 543h371 q-106 302 -185 571q-101 -329 -186 -571z" />
<glyph unicode="&#xc4;" horiz-adv-x="1239" d="M-10 0l532 1386h193l534 -1386h-260l-127 362h-500l-131 -362h-241zM287 1657q0 59 34 96t95 37q59 0 92 -36t33 -93q0 -58 -34.5 -94.5t-96.5 -36.5q-57 0 -90 36.5t-33 90.5zM428 543h371q-106 302 -185 571q-101 -329 -186 -571zM694 1657q0 59 34 96t97 37 q59 0 92 -36t33 -93q0 -58 -34.5 -94.5t-96.5 -36.5q-58 0 -91.5 36t-33.5 91z" />
<glyph unicode="&#xc5;" horiz-adv-x="1239" d="M-10 0l506 1319q-82 59 -82 170q0 88 59 146.5t148 58.5q88 0 144 -58t56 -147q0 -106 -82 -168l510 -1321h-260l-127 362h-500l-131 -362h-241zM428 543h371q-106 302 -185 571q-101 -329 -186 -571zM528 1491q0 -39 15.5 -67.5t44.5 -37.5h55q64 16 64 103 q0 46 -24.5 74t-66.5 28q-41 0 -64.5 -26.5t-23.5 -73.5z" />
<glyph unicode="&#xc6;" horiz-adv-x="1794" d="M-10 0l839 1386h881v-184h-580v-387h478l-31 -186h-447v-445h611v-184h-850v362h-412l-207 -362h-282zM582 543h309v594q-7 -16 -309 -594z" />
<glyph unicode="&#xc7;" horiz-adv-x="1071" d="M96 676q0 219 64.5 380.5t202 255t337.5 93.5q201 0 330 -148l-125 -149q-103 109 -229 109q-85 0 -147.5 -40t-98.5 -112t-53 -163t-17 -204q0 -114 16 -203.5t52.5 -164t103.5 -114.5t162 -40q43 0 90.5 8t78.5 17t59 18t30 10l58 -172q1 0 -13 -5.5t-40.5 -14.5 t-61 -18t-83 -17.5t-97.5 -11.5l-19 -86q83 -6 134 -48t51 -114q0 -43 -14.5 -77t-38 -54.5t-55.5 -33.5t-64 -18t-68 -5q-89 0 -178 34l33 111q84 -27 131 -27q102 0 102 64q0 43 -59 66.5t-129 23.5l41 166q-239 20 -362.5 195t-123.5 489z" />
<glyph unicode="&#xc8;" horiz-adv-x="1050" d="M57 1733l107 168l465 -312l-58 -119l-17 6q-18 5 -51 16t-73.5 26.5t-90 38t-97 48t-97 59t-88.5 69.5zM143 0v1386h824v-184h-580v-387h477l-30 -186h-447v-445h610v-184h-854z" />
<glyph unicode="&#xc9;" horiz-adv-x="1050" d="M143 0v1386h824v-184h-580v-387h477l-30 -186h-447v-445h610v-184h-854zM522 1589l465 312l107 -168q-39 -36 -88.5 -69.5t-97 -59t-97 -48t-90 -38t-73.5 -26.5t-50 -16l-18 -6z" />
<glyph unicode="&#xca;" horiz-adv-x="1050" d="M143 0v1386h824v-184h-580v-387h477l-30 -186h-447v-445h610v-184h-854zM174 1579l406 322l405 -322l-90 -109q3 -3 -41.5 18.5t-123 67.5t-150.5 99q-73 -53 -152 -99t-123 -67.5t-41 -18.5z" />
<glyph unicode="&#xcb;" horiz-adv-x="1050" d="M143 0v1386h824v-184h-580v-387h477l-30 -186h-447v-445h610v-184h-854zM193 1657q0 59 34 96t95 37q58 0 91 -36t33 -93q0 -58 -34.5 -94.5t-96.5 -36.5q-57 0 -89.5 36t-32.5 91zM600 1657q0 59 34 96t97 37q59 0 92 -36t33 -93q0 -58 -34.5 -94.5t-96.5 -36.5 q-58 0 -91.5 36t-33.5 91z" />
<glyph unicode="&#xcc;" horiz-adv-x="530" d="M-256 1733l106 168l465 -312l-57 -119l-18 6q-17 5 -50 16t-73.5 26.5t-90 38t-97 48t-97 59t-88.5 69.5zM143 0v1386h244v-1386h-244z" />
<glyph unicode="&#xcd;" horiz-adv-x="530" d="M143 0v1386h244v-1386h-244zM209 1589l465 312l106 -168q-39 -36 -88.5 -69.5t-97 -59t-97 -48t-90 -38t-73.5 -26.5t-50 -16l-18 -6z" />
<glyph unicode="&#xce;" horiz-adv-x="530" d="M-139 1579l405 322l406 -322l-90 -109q3 -3 -41.5 18.5t-123.5 67.5t-151 99q-73 -53 -151.5 -99t-122.5 -67.5t-41 -18.5zM143 0v1386h244v-1386h-244z" />
<glyph unicode="&#xcf;" horiz-adv-x="530" d="M-66 1657q0 59 34 96t95 37q59 0 92 -36t33 -93q0 -58 -34.5 -94.5t-96.5 -36.5q-57 0 -90 36.5t-33 90.5zM143 0v1386h244v-1386h-244zM342 1657q0 59 34 96t97 37q59 0 92 -36t33 -93q0 -58 -34.5 -94.5t-96.5 -36.5q-58 0 -91.5 36t-33.5 91z" />
<glyph unicode="&#xd0;" horiz-adv-x="1316" d="M0 621v180h143v585q10 0 169 2.5t233 2.5q684 0 684 -689q0 -706 -711 -706q-100 0 -234.5 2t-140.5 2v621h-143zM387 180q31 -2 162 -2q212 0 314 125.5t102 376.5q0 528 -449 528q-35 0 -78 -1t-51 -1v-405h369v-180h-369v-441z" />
<glyph unicode="&#xd1;" horiz-adv-x="1349" d="M143 0v1391h191l481 -721q38 -55 166 -254q-12 176 -12 246l-6 724h243v-1388h-202l-467 729q-11 17 -172 272q16 -176 16 -274l6 -725h-244zM354 1573v151q8 5 22 13t56.5 21.5t83.5 13.5q50 0 156.5 -20.5t156.5 -20.5q41 0 82 7t61 14l21 7v-151q-8 -5 -22.5 -13 t-57.5 -21t-84 -13q-50 0 -156.5 20.5t-156.5 20.5q-41 0 -81.5 -7t-60.5 -15z" />
<glyph unicode="&#xd2;" horiz-adv-x="1368" d="M92 676q0 163 36.5 295t109.5 229.5t190 151t270 53.5q151 0 262 -48t180 -140.5t102.5 -219.5t33.5 -292q0 -162 -36.5 -292t-109.5 -225.5t-189.5 -147.5t-268.5 -52q-580 0 -580 688zM158 1733l106 168l465 -312l-57 -119l-18 6q-17 5 -50 16t-73.5 26.5t-90 38 t-97 48t-97 59t-88.5 69.5zM356 698q0 -89 8.5 -161t31.5 -141.5t60.5 -116t99.5 -75t144 -28.5q314 0 314 508q0 89 -8.5 162t-31.5 144t-60.5 119.5t-99.5 78t-144 29.5q-314 0 -314 -519z" />
<glyph unicode="&#xd3;" horiz-adv-x="1368" d="M92 676q0 163 36.5 295t109.5 229.5t190 151t270 53.5q151 0 262 -48t180 -140.5t102.5 -219.5t33.5 -292q0 -162 -36.5 -292t-109.5 -225.5t-189.5 -147.5t-268.5 -52q-580 0 -580 688zM356 698q0 -89 8.5 -161t31.5 -141.5t60.5 -116t99.5 -75t144 -28.5q314 0 314 508 q0 89 -8.5 162t-31.5 144t-60.5 119.5t-99.5 78t-144 29.5q-314 0 -314 -519zM621 1589l464 312l107 -168q-39 -36 -88.5 -69.5t-97 -59t-97 -48t-90 -38t-73.5 -26.5t-50 -16l-18 -6z" />
<glyph unicode="&#xd4;" horiz-adv-x="1368" d="M92 676q0 163 36.5 295t109.5 229.5t190 151t270 53.5q151 0 262 -48t180 -140.5t102.5 -219.5t33.5 -292q0 -162 -36.5 -292t-109.5 -225.5t-189.5 -147.5t-268.5 -52q-580 0 -580 688zM274 1579l406 322l405 -322l-90 -109q3 -3 -41.5 18.5t-123 67.5t-150.5 99 q-73 -53 -151.5 -99t-122.5 -67.5t-41 -18.5zM356 698q0 -89 8.5 -161t31.5 -141.5t60.5 -116t99.5 -75t144 -28.5q314 0 314 508q0 89 -8.5 162t-31.5 144t-60.5 119.5t-99.5 78t-144 29.5q-314 0 -314 -519z" />
<glyph unicode="&#xd5;" horiz-adv-x="1368" d="M92 676q0 163 36.5 295t109.5 229.5t190 151t270 53.5q151 0 262 -48t180 -140.5t102.5 -219.5t33.5 -292q0 -162 -36.5 -292t-109.5 -225.5t-189.5 -147.5t-268.5 -52q-580 0 -580 688zM346 1556v152q8 5 22 13t56.5 21t83.5 13q50 0 156.5 -20.5t156.5 -20.5q41 0 82 7 t61 15l21 7v-152q-8 -5 -22.5 -13t-57.5 -21t-84 -13q-50 0 -156.5 20.5t-156.5 20.5q-41 0 -81.5 -7.5t-60.5 -14.5zM356 698q0 -89 8.5 -161t31.5 -141.5t60.5 -116t99.5 -75t144 -28.5q314 0 314 508q0 89 -8.5 162t-31.5 144t-60.5 119.5t-99.5 78t-144 29.5 q-314 0 -314 -519z" />
<glyph unicode="&#xd6;" horiz-adv-x="1368" d="M92 676q0 163 36.5 295t109.5 229.5t190 151t270 53.5q151 0 262 -48t180 -140.5t102.5 -219.5t33.5 -292q0 -162 -36.5 -292t-109.5 -225.5t-189.5 -147.5t-268.5 -52q-580 0 -580 688zM352 1657q0 59 34 96t95 37q59 0 92 -36t33 -93q0 -58 -34.5 -94.5t-96.5 -36.5 q-57 0 -90 36.5t-33 90.5zM356 698q0 -89 8.5 -161t31.5 -141.5t60.5 -116t99.5 -75t144 -28.5q314 0 314 508q0 89 -8.5 162t-31.5 144t-60.5 119.5t-99.5 78t-144 29.5q-314 0 -314 -519zM760 1657q0 59 34 96t97 37q59 0 92 -36t33 -93q0 -58 -34.5 -94.5t-96.5 -36.5 q-58 0 -91.5 36t-33.5 91z" />
<glyph unicode="&#xd7;" horiz-adv-x="1056" d="M123 348l276 275l-262 262l125 129l262 -266l269 270l133 -137l-267 -267l275 -272l-125 -129l-274 276l-279 -276z" />
<glyph unicode="&#xd8;" horiz-adv-x="1368" d="M92 676q0 163 36.5 295t109.5 229.5t190 151t270 53.5q84 0 150 -14l51 129l201 -82l-53 -131q229 -167 229 -602q0 -162 -36.5 -292t-109.5 -225.5t-189.5 -147.5t-268.5 -52q-84 0 -154 12l-51 -129l-199 82l51 129q-227 159 -227 594zM356 698q0 -240 66 -364l350 868 q-58 15 -102 15q-314 0 -314 -519zM594 188q46 -12 106 -12q314 0 314 508q0 242 -68 373z" />
<glyph unicode="&#xd9;" horiz-adv-x="1300" d="M123 510v876h242v-858q0 -352 297 -352q136 0 204 91.5t68 260.5v858h244v-876q0 -111 -28.5 -202t-90 -164.5t-169.5 -114.5t-255 -41q-112 0 -200.5 27.5t-146.5 74.5t-95.5 114.5t-53.5 142.5t-16 163zM129 1733l107 168l464 -312l-57 -119l-17 6q-18 5 -51 16 t-73.5 26.5t-90 38t-97 48t-97 59t-88.5 69.5z" />
<glyph unicode="&#xda;" horiz-adv-x="1300" d="M123 510v876h242v-858q0 -352 297 -352q136 0 204 91.5t68 260.5v858h244v-876q0 -111 -28.5 -202t-90 -164.5t-169.5 -114.5t-255 -41q-112 0 -200.5 27.5t-146.5 74.5t-95.5 114.5t-53.5 142.5t-16 163zM594 1589l465 312l106 -168q-39 -36 -88.5 -69.5t-97 -59 t-97 -48t-90 -38t-73.5 -26.5t-51 -16l-17 -6z" />
<glyph unicode="&#xdb;" horiz-adv-x="1300" d="M123 510v876h242v-858q0 -352 297 -352q136 0 204 91.5t68 260.5v858h244v-876q0 -111 -28.5 -202t-90 -164.5t-169.5 -114.5t-255 -41q-112 0 -200.5 27.5t-146.5 74.5t-95.5 114.5t-53.5 142.5t-16 163zM246 1579l405 322l406 -322l-90 -109q3 -3 -41.5 18.5 t-123.5 67.5t-151 99q-73 -53 -151.5 -99t-122.5 -67.5t-41 -18.5z" />
<glyph unicode="&#xdc;" horiz-adv-x="1300" d="M123 510v876h242v-858q0 -352 297 -352q136 0 204 91.5t68 260.5v858h244v-876q0 -111 -28.5 -202t-90 -164.5t-169.5 -114.5t-255 -41q-112 0 -200.5 27.5t-146.5 74.5t-95.5 114.5t-53.5 142.5t-16 163zM317 1657q0 59 34 96t95 37q59 0 92 -36t33 -93 q0 -58 -34.5 -94.5t-96.5 -36.5q-57 0 -90 36.5t-33 90.5zM725 1657q0 59 34 96t97 37q59 0 92 -36t33 -93q0 -58 -34.5 -94.5t-96.5 -36.5q-58 0 -91.5 36t-33.5 91z" />
<glyph unicode="&#xdd;" horiz-adv-x="1112" d="M0 1386h264l291 -628l297 628h258l-436 -866v-520h-244v530zM502 1589l465 312l106 -168q-39 -36 -88.5 -69.5t-97 -59t-97 -48t-90 -38t-73.5 -26.5t-51 -16l-17 -6z" />
<glyph unicode="&#xde;" horiz-adv-x="1099" d="M143 0v1386h244v-249h168q249 0 370.5 -107t121.5 -309q0 -200 -132.5 -315t-384.5 -115h-143v-291h-244zM387 471h158q123 0 181 66t58 176q0 52 -13 94.5t-41.5 79.5t-81 57.5t-124.5 20.5q-104 0 -137 -2v-492z" />
<glyph unicode="&#xdf;" horiz-adv-x="1183" d="M-10 -315q49 25 86 55t58.5 63t35 60.5t18.5 63t6 54t1 48.5v950q0 231 123 368.5t356 137.5q176 0 268 -83.5t92 -203.5q0 -55 -17.5 -101t-43.5 -74.5t-56.5 -55t-56.5 -46t-43.5 -45t-17.5 -53.5q0 -38 17.5 -70t46 -56.5t63 -49t68.5 -55t62.5 -67t46 -91.5 t17.5 -123q0 -145 -104 -235t-273 -90q-59 0 -122.5 18t-91.5 32t-46 25l70 154q106 -53 160 -53q82 0 127 32.5t45 98.5q0 39 -16.5 71t-43.5 55.5t-59 46.5t-64.5 51t-59.5 62.5t-43.5 87t-16.5 117.5q0 56 23 104.5t55 82.5t64.5 65t55.5 67.5t23 74.5q0 65 -46.5 97 t-115.5 32q-60 0 -103 -27t-66 -73.5t-33.5 -98.5t-10.5 -113v-944q0 -60 -7.5 -111.5t-25 -94t-35 -76t-47.5 -64t-52 -50.5t-60.5 -43.5t-60 -35.5t-62.5 -33z" />
<glyph unicode="&#xe0;" horiz-adv-x="1097" d="M72 496q0 235 136 387.5t353 152.5q30 0 63.5 -2.5t64.5 -6t64.5 -9t60 -10.5t53 -10.5t43 -9.5t31 -7.5t15.5 -3.5v-483q0 -91 10 -169t25 -125.5t29.5 -81.5t24.5 -48l10 -13l-183 -73l-10.5 10.5t-23 30.5t-30 51t-25.5 70.5t-15 89.5q-34 -125 -112 -186.5 t-207 -61.5q-187 0 -282 135.5t-95 372.5zM143 1450l156 145l348 -387l-98 -106q-10 6 -27.5 17t-68 47.5t-98 74.5t-107.5 95.5t-105 113.5zM324 516q0 -55 2 -94t7 -84t16.5 -75.5t28.5 -57.5t45 -40t64 -13q65 0 120 59t85.5 151t30.5 193v295q-74 22 -135 22 q-75 0 -127.5 -26t-81.5 -75t-42 -111t-13 -144z" />
<glyph unicode="&#xe1;" horiz-adv-x="1097" d="M72 496q0 235 136 387.5t353 152.5q30 0 63.5 -2.5t64.5 -6t64.5 -9t60 -10.5t53 -10.5t43 -9.5t31 -7.5t15.5 -3.5v-483q0 -91 10 -169t25 -125.5t29.5 -81.5t24.5 -48l10 -13l-183 -73l-10.5 10.5t-23 30.5t-30 51t-25.5 70.5t-15 89.5q-34 -125 -112 -186.5 t-207 -61.5q-187 0 -282 135.5t-95 372.5zM324 516q0 -55 2 -94t7 -84t16.5 -75.5t28.5 -57.5t45 -40t64 -13q65 0 120 59t85.5 151t30.5 193v295q-74 22 -135 22q-75 0 -127.5 -26t-81.5 -75t-42 -111t-13 -144zM430 1208l348 387l156 -145q-72 -89 -173 -176t-166 -130 l-65 -42z" />
<glyph unicode="&#xe2;" horiz-adv-x="1097" d="M72 496q0 235 136 387.5t353 152.5q30 0 63.5 -2.5t64.5 -6t64.5 -9t60 -10.5t53 -10.5t43 -9.5t31 -7.5t15.5 -3.5v-483q0 -91 10 -169t25 -125.5t29.5 -81.5t24.5 -48l10 -13l-183 -73l-10.5 10.5t-23 30.5t-30 51t-25.5 70.5t-15 89.5q-34 -125 -112 -186.5 t-207 -61.5q-187 0 -282 135.5t-95 372.5zM178 1212l385 383l383 -383l-88 -110l-8 4q-7 5 -22.5 15t-36 23t-47.5 31.5t-55 39t-61.5 47t-64.5 53.5q-125 -107 -295 -212l-2 -1zM324 516q0 -55 2 -94t7 -84t16.5 -75.5t28.5 -57.5t45 -40t64 -13q65 0 120 59t85.5 151 t30.5 193v295q-74 22 -135 22q-75 0 -127.5 -26t-81.5 -75t-42 -111t-13 -144z" />
<glyph unicode="&#xe3;" horiz-adv-x="1097" d="M72 496q0 235 136 387.5t353 152.5q30 0 63.5 -2.5t64.5 -6t64.5 -9t60 -10.5t53 -10.5t43 -9.5t31 -7.5t15.5 -3.5v-483q0 -91 10 -169t25 -125.5t29.5 -81.5t24.5 -48l10 -13l-183 -73l-10.5 10.5t-23 30.5t-30 51t-25.5 70.5t-15 89.5q-34 -125 -112 -186.5 t-207 -61.5q-187 0 -282 135.5t-95 372.5zM217 1206v152q8 5 22 13t56.5 21t83.5 13q50 0 156.5 -20.5t156.5 -20.5q41 0 82 7t62 15l20 7v-152q-8 -5 -22.5 -13t-57.5 -21t-84 -13q-50 0 -156.5 20.5t-156.5 20.5q-41 0 -81.5 -7.5t-60.5 -14.5zM324 516q0 -55 2 -94t7 -84 t16.5 -75.5t28.5 -57.5t45 -40t64 -13q65 0 120 59t85.5 151t30.5 193v295q-74 22 -135 22q-75 0 -127.5 -26t-81.5 -75t-42 -111t-13 -144z" />
<glyph unicode="&#xe4;" horiz-adv-x="1097" d="M72 496q0 235 136 387.5t353 152.5q30 0 63.5 -2.5t64.5 -6t64.5 -9t60 -10.5t53 -10.5t43 -9.5t31 -7.5t15.5 -3.5v-483q0 -91 10 -169t25 -125.5t29.5 -81.5t24.5 -48l10 -13l-183 -73l-10.5 10.5t-23 30.5t-30 51t-25.5 70.5t-15 89.5q-34 -125 -112 -186.5 t-207 -61.5q-187 0 -282 135.5t-95 372.5zM215 1329q0 59 34 96t95 37q59 0 92 -36t33 -93q0 -58 -34.5 -94.5t-96.5 -36.5q-57 0 -90 36.5t-33 90.5zM324 516q0 -55 2 -94t7 -84t16.5 -75.5t28.5 -57.5t45 -40t64 -13q65 0 120 59t85.5 151t30.5 193v295q-74 22 -135 22 q-75 0 -127.5 -26t-81.5 -75t-42 -111t-13 -144zM623 1329q0 59 34 96t97 37q59 0 92 -36t33 -93q0 -58 -34.5 -94.5t-96.5 -36.5q-58 0 -91.5 36t-33.5 91z" />
<glyph unicode="&#xe5;" horiz-adv-x="1097" d="M72 496q0 235 136 387.5t353 152.5q30 0 63.5 -2.5t64.5 -6t64.5 -9t60 -10.5t53 -10.5t43 -9.5t31 -7.5t15.5 -3.5v-483q0 -91 10 -169t25 -125.5t29.5 -81.5t24.5 -48l10 -13l-183 -73l-10.5 10.5t-23 30.5t-30 51t-25.5 70.5t-15 89.5q-34 -125 -112 -186.5 t-207 -61.5q-187 0 -282 135.5t-95 372.5zM324 516q0 -55 2 -94t7 -84t16.5 -75.5t28.5 -57.5t45 -40t64 -13q65 0 120 59t85.5 151t30.5 193v295q-74 22 -135 22q-75 0 -127.5 -26t-81.5 -75t-42 -111t-13 -144zM344 1323q0 88 59 146.5t148 58.5q88 0 144.5 -58t56.5 -147 q0 -88 -59 -147.5t-148 -59.5q-87 0 -144 59.5t-57 147.5zM459 1325q0 -47 24 -77.5t64 -30.5q43 0 66.5 28t23.5 78q0 46 -24 74t-66 28q-41 0 -64.5 -26.5t-23.5 -73.5z" />
<glyph unicode="&#xe6;" horiz-adv-x="1556" d="M72 496q0 235 136 387.5t353 152.5q170 0 336 -71q116 79 277 79q174 0 258 -79.5t84 -210.5q0 -152 -162 -259t-426 -110q6 -51 19 -90t38.5 -72.5t68 -51t101.5 -17.5q53 0 125.5 18t119.5 36l46 17l61 -145q-7 -4 -20.5 -10t-55 -22.5t-84.5 -29t-105 -22.5t-120 -10 q-270 0 -377 190q-77 -188 -296 -188q-187 0 -282 135.5t-95 372.5zM324 516q0 -55 2 -94t7 -84t16.5 -75.5t28.5 -57.5t45 -40t64 -13q68 0 122.5 52t82.5 140q-10 54 -10 141q0 201 84 340q-85 47 -178 47q-75 0 -127.5 -26t-81.5 -75t-42 -111t-13 -144zM922 532 q181 7 270.5 73t89.5 149q0 60 -34.5 95.5t-90.5 35.5q-53 0 -94 -21t-66.5 -54.5t-42.5 -81t-24 -95t-8 -101.5z" />
<glyph unicode="&#xe7;" horiz-adv-x="839" d="M72 485q0 262 132 410.5t337 148.5q177 0 276 -139l-131 -125q-27 29 -42 43t-43.5 27.5t-61.5 13.5q-30 0 -55 -5t-56.5 -26t-52.5 -56.5t-36 -102.5t-15 -158q0 -92 14.5 -160t36.5 -105.5t54 -60.5t59.5 -29.5t60.5 -6.5q63 0 201 41l57 -148q-94 -47 -225 -59 l-19 -84q83 -6 134 -48t51 -114q0 -54 -21.5 -92.5t-58 -58.5t-76.5 -28.5t-86 -8.5q-87 0 -176 34l32 111q84 -27 132 -27q102 0 102 64q0 43 -59 66.5t-129 23.5l41 164q-193 20 -285 149.5t-92 345.5z" />
<glyph unicode="&#xe8;" horiz-adv-x="968" d="M72 485q0 265 138 412t355 147q174 0 258 -79.5t84 -210.5q0 -152 -162.5 -259t-425.5 -110q12 -107 63.5 -169t164.5 -62q53 0 125.5 18t119.5 36l46 17l61 -145q-7 -4 -20.5 -10t-55 -22.5t-84.5 -29t-105 -22.5t-120 -10q-227 0 -334.5 132t-107.5 367zM121 1450 l155 145l349 -387l-99 -106q-10 6 -27.5 17t-68 47.5t-97.5 74.5t-107 95.5t-105 113.5zM313 532q93 4 165.5 25.5t113.5 54t61.5 68.5t20.5 74q0 60 -35 95.5t-92 35.5q-64 0 -111 -30.5t-72.5 -84t-37 -111.5t-13.5 -127z" />
<glyph unicode="&#xe9;" horiz-adv-x="968" d="M72 485q0 265 138 412t355 147q174 0 258 -79.5t84 -210.5q0 -152 -162.5 -259t-425.5 -110q12 -107 63.5 -169t164.5 -62q53 0 125.5 18t119.5 36l46 17l61 -145q-7 -4 -20.5 -10t-55 -22.5t-84.5 -29t-105 -22.5t-120 -10q-227 0 -334.5 132t-107.5 367zM313 532 q93 4 165.5 25.5t113.5 54t61.5 68.5t20.5 74q0 60 -35 95.5t-92 35.5q-64 0 -111 -30.5t-72.5 -84t-37 -111.5t-13.5 -127zM410 1208l348 387l155 -145q-72 -89 -172.5 -176t-165.5 -130l-65 -42z" />
<glyph unicode="&#xea;" horiz-adv-x="968" d="M72 485q0 265 138 412t355 147q174 0 258 -79.5t84 -210.5q0 -152 -162.5 -259t-425.5 -110q12 -107 63.5 -169t164.5 -62q53 0 125.5 18t119.5 36l46 17l61 -145q-7 -4 -20.5 -10t-55 -22.5t-84.5 -29t-105 -22.5t-120 -10q-227 0 -334.5 132t-107.5 367zM156 1212 l385 383l383 -383l-88 -110l-8 4q-7 5 -22.5 15t-36 23t-47.5 31.5t-55 39t-61.5 47t-64.5 53.5q-125 -107 -295 -212l-2 -1zM313 532q93 4 165.5 25.5t113.5 54t61.5 68.5t20.5 74q0 60 -35 95.5t-92 35.5q-64 0 -111 -30.5t-72.5 -84t-37 -111.5t-13.5 -127z" />
<glyph unicode="&#xeb;" horiz-adv-x="968" d="M72 485q0 265 138 412t355 147q174 0 258 -79.5t84 -210.5q0 -152 -162.5 -259t-425.5 -110q12 -107 63.5 -169t164.5 -62q53 0 125.5 18t119.5 36l46 17l61 -145q-7 -4 -20.5 -10t-55 -22.5t-84.5 -29t-105 -22.5t-120 -10q-227 0 -334.5 132t-107.5 367zM193 1329 q0 59 34 96t95 37q58 0 91 -36t33 -93q0 -58 -34.5 -94.5t-96.5 -36.5q-57 0 -89.5 36t-32.5 91zM313 532q93 4 165.5 25.5t113.5 54t61.5 68.5t20.5 74q0 60 -35 95.5t-92 35.5q-64 0 -111 -30.5t-72.5 -84t-37 -111.5t-13.5 -127zM600 1329q0 59 34 96t97 37q59 0 92 -36 t33 -93q0 -58 -34.5 -94.5t-96.5 -36.5q-58 0 -91.5 36t-33.5 91z" />
<glyph unicode="&#xec;" horiz-adv-x="501" d="M-133 1460l164 137l284 -389l-98 -104q-21 17 -56.5 48.5t-128.5 125t-165 182.5zM102 223v797h234v-776q0 -45 13.5 -62.5t43.5 -17.5l53 4l25 -148q-49 -28 -145 -28q-105 0 -164.5 63.5t-59.5 167.5z" />
<glyph unicode="&#xed;" horiz-adv-x="501" d="M102 223v797h234v-776q0 -45 13.5 -62.5t43.5 -17.5l53 4l25 -148q-49 -28 -145 -28q-105 0 -164.5 63.5t-59.5 167.5zM115 1208l286 389l162 -137q-72 -89 -159.5 -178t-139.5 -134l-51 -44z" />
<glyph unicode="&#xee;" horiz-adv-x="501" d="M-131 1206l348 393l350 -393l-96 -102q-5 4 -31.5 24t-53 40.5t-73.5 60t-96 84.5q-50 -46 -97 -85.5t-70.5 -58t-53.5 -40.5t-33 -25zM102 223v797h234v-776q0 -45 13.5 -62.5t43.5 -17.5l53 4l25 -148q-49 -28 -145 -28q-105 0 -164.5 63.5t-59.5 167.5z" />
<glyph unicode="&#xef;" horiz-adv-x="501" d="M-72 1317q0 57 32 92t91 35q56 0 87.5 -33.5t31.5 -87.5q0 -56 -32.5 -91.5t-92.5 -35.5q-54 0 -85.5 35t-31.5 86zM102 223v797h234v-776q0 -45 13.5 -62.5t43.5 -17.5l53 4l25 -148q-49 -28 -145 -28q-105 0 -164.5 63.5t-59.5 167.5zM266 1317q0 57 32.5 92t92.5 35 q56 0 87.5 -33.5t31.5 -87.5q0 -56 -32.5 -91.5t-92.5 -35.5q-55 0 -87 34.5t-32 86.5z" />
<glyph unicode="&#xf0;" horiz-adv-x="1058" d="M72 489q0 144 49.5 256t152 179t244.5 67q111 0 195 -59q-39 101 -99 203l-229 -64l-41 160l154 33l-111 86l119 143q118 -72 211 -176l250 65l41 -157l-193 -41q172 -280 172 -672q0 -116 -29.5 -212.5t-86.5 -168.5t-146.5 -111.5t-204.5 -39.5t-201.5 37.5t-140 106 t-80 160t-26.5 205.5zM324 508q0 -356 217 -356q57 0 96.5 27t60 76.5t29 106.5t8.5 130q0 59 -5.5 106.5t-20.5 92t-38.5 74t-62.5 47t-90 17.5q-57 0 -96.5 -23.5t-60 -69.5t-29 -100.5t-8.5 -127.5z" />
<glyph unicode="&#xf1;" horiz-adv-x="1124" d="M51 952l185 74q3 -3 8.5 -9t20 -27t26.5 -44.5t25.5 -61.5t19.5 -79q51 117 148.5 174t215.5 57q153 0 226 -92t73 -260v-684h-231v662q0 190 -135 190q-98 0 -173 -96t-75 -250v-506h-233v516q0 91 -10.5 169.5t-25 125.5t-29.5 80.5t-25 46.5zM322 1206v152q8 5 22 13 t56 21t83 13q50 0 157 -20.5t157 -20.5q41 0 82 7t61 15l21 7v-152q-8 -5 -22.5 -13t-57.5 -21t-84 -13q-50 0 -157 20.5t-157 20.5q-41 0 -81 -7.5t-60 -14.5z" />
<glyph unicode="&#xf2;" horiz-adv-x="1058" d="M72 500q0 158 50.5 278.5t157.5 193t259 72.5q229 0 338.5 -135t109.5 -387q0 -117 -29.5 -214.5t-86 -171t-146.5 -115t-205 -41.5q-229 0 -338.5 134.5t-109.5 385.5zM121 1450l155 145l349 -387l-99 -106q-10 6 -27.5 17t-68 47.5t-97.5 74.5t-107 95.5t-105 113.5z M324 520q0 -82 9.5 -144t32.5 -115t67 -81t108 -28q57 0 96.5 26t60 76t29 109t8.5 139q0 83 -9.5 145.5t-32.5 115.5t-67 81t-108 28q-57 0 -96.5 -26t-60 -76.5t-29 -110t-8.5 -139.5z" />
<glyph unicode="&#xf3;" horiz-adv-x="1058" d="M72 500q0 158 50.5 278.5t157.5 193t259 72.5q229 0 338.5 -135t109.5 -387q0 -117 -29.5 -214.5t-86 -171t-146.5 -115t-205 -41.5q-229 0 -338.5 134.5t-109.5 385.5zM324 520q0 -82 9.5 -144t32.5 -115t67 -81t108 -28q57 0 96.5 26t60 76t29 109t8.5 139 q0 83 -9.5 145.5t-32.5 115.5t-67 81t-108 28q-57 0 -96.5 -26t-60 -76.5t-29 -110t-8.5 -139.5zM410 1208l348 387l155 -145q-72 -89 -172.5 -176t-165.5 -130l-65 -42z" />
<glyph unicode="&#xf4;" horiz-adv-x="1058" d="M72 500q0 158 50.5 278.5t157.5 193t259 72.5q229 0 338.5 -135t109.5 -387q0 -117 -29.5 -214.5t-86 -171t-146.5 -115t-205 -41.5q-229 0 -338.5 134.5t-109.5 385.5zM156 1212l385 383l383 -383l-88 -110l-8 4q-7 5 -22.5 15t-36 23t-47.5 31.5t-55 39t-61.5 47 t-64.5 53.5q-125 -107 -295 -212l-2 -1zM324 520q0 -82 9.5 -144t32.5 -115t67 -81t108 -28q57 0 96.5 26t60 76t29 109t8.5 139q0 83 -9.5 145.5t-32.5 115.5t-67 81t-108 28q-57 0 -96.5 -26t-60 -76.5t-29 -110t-8.5 -139.5z" />
<glyph unicode="&#xf5;" horiz-adv-x="1058" d="M72 500q0 158 50.5 278.5t157.5 193t259 72.5q229 0 338.5 -135t109.5 -387q0 -117 -29.5 -214.5t-86 -171t-146.5 -115t-205 -41.5q-229 0 -338.5 134.5t-109.5 385.5zM195 1206v152q8 5 22 13t56 21t83 13q50 0 157 -20.5t157 -20.5q41 0 82 7t62 15l20 7v-152 q-8 -5 -22.5 -13t-57.5 -21t-84 -13q-50 0 -157 20.5t-157 20.5q-41 0 -81 -7.5t-60 -14.5zM324 520q0 -82 9.5 -144t32.5 -115t67 -81t108 -28q57 0 96.5 26t60 76t29 109t8.5 139q0 83 -9.5 145.5t-32.5 115.5t-67 81t-108 28q-57 0 -96.5 -26t-60 -76.5t-29 -110 t-8.5 -139.5z" />
<glyph unicode="&#xf6;" horiz-adv-x="1058" d="M72 500q0 158 50.5 278.5t157.5 193t259 72.5q229 0 338.5 -135t109.5 -387q0 -117 -29.5 -214.5t-86 -171t-146.5 -115t-205 -41.5q-229 0 -338.5 134.5t-109.5 385.5zM193 1329q0 59 34 96t95 37q58 0 91 -36t33 -93q0 -58 -34.5 -94.5t-96.5 -36.5q-57 0 -89.5 36 t-32.5 91zM324 520q0 -82 9.5 -144t32.5 -115t67 -81t108 -28q57 0 96.5 26t60 76t29 109t8.5 139q0 83 -9.5 145.5t-32.5 115.5t-67 81t-108 28q-57 0 -96.5 -26t-60 -76.5t-29 -110t-8.5 -139.5zM600 1329q0 59 34 96t97 37q59 0 92 -36t33 -93q0 -58 -34.5 -94.5 t-96.5 -36.5q-58 0 -91.5 36t-33.5 91z" />
<glyph unicode="&#xf7;" horiz-adv-x="1046" d="M123 526v183h801v-183h-801zM397 272q0 57 32.5 93t92.5 36q56 0 87.5 -33.5t31.5 -88.5q0 -56 -32.5 -91.5t-92.5 -35.5q-55 0 -87 34.5t-32 85.5zM397 946q0 57 32.5 93t92.5 36q56 0 87.5 -34t31.5 -89q0 -56 -32.5 -91.5t-92.5 -35.5q-55 0 -87 34.5t-32 86.5z" />
<glyph unicode="&#xf8;" horiz-adv-x="1058" d="M72 500q0 158 50.5 278.5t157.5 193t259 72.5q76 0 145 -16l51 105l158 -72l-55 -113q149 -131 149 -426q0 -117 -29.5 -214.5t-86 -171t-146.5 -115t-205 -41.5q-76 0 -145 16l-51 -107l-160 72l55 115q-147 129 -147 424zM324 520q0 -121 18 -192l258 528 q-37 16 -82 16q-57 0 -96.5 -26t-60 -76.5t-29 -110t-8.5 -139.5zM459 166q32 -14 82 -14q57 0 96.5 26t60 76t29 109t8.5 139q0 113 -20 194z" />
<glyph unicode="&#xf9;" horiz-adv-x="1124" d="M123 340v680h233v-676q0 -184 136 -184q96 0 171.5 102t75.5 258v500h234v-526q0 -91 10 -169t24.5 -125.5t29 -81.5t24.5 -48l10 -13l-182 -73l-9 9t-21.5 27.5t-28.5 46t-26 63.5t-18 81q-53 -114 -150 -168.5t-214 -54.5q-299 0 -299 352zM150 1450l155 145l348 -387 l-98 -106q-10 6 -27.5 17t-68 47.5t-97.5 74.5t-107 95.5t-105 113.5z" />
<glyph unicode="&#xfa;" horiz-adv-x="1124" d="M123 340v680h233v-676q0 -184 136 -184q96 0 171.5 102t75.5 258v500h234v-526q0 -91 10 -169t24.5 -125.5t29 -81.5t24.5 -48l10 -13l-182 -73l-9 9t-21.5 27.5t-28.5 46t-26 63.5t-18 81q-53 -114 -150 -168.5t-214 -54.5q-299 0 -299 352zM438 1208l348 387l156 -145 q-72 -89 -173 -176t-165 -130l-65 -42z" />
<glyph unicode="&#xfb;" horiz-adv-x="1124" d="M123 340v680h233v-676q0 -184 136 -184q96 0 171.5 102t75.5 258v500h234v-526q0 -91 10 -169t24.5 -125.5t29 -81.5t24.5 -48l10 -13l-182 -73l-9 9t-21.5 27.5t-28.5 46t-26 63.5t-18 81q-53 -114 -150 -168.5t-214 -54.5q-299 0 -299 352zM186 1212l385 383l383 -383 l-88 -110l-8 4q-7 5 -22.5 15t-36 23t-47.5 31.5t-55 39t-61.5 47t-64.5 53.5q-125 -107 -295 -212l-2 -1z" />
<glyph unicode="&#xfc;" horiz-adv-x="1124" d="M123 340v680h233v-676q0 -184 136 -184q96 0 171.5 102t75.5 258v500h234v-526q0 -91 10 -169t24.5 -125.5t29 -81.5t24.5 -48l10 -13l-182 -73l-9 9t-21.5 27.5t-28.5 46t-26 63.5t-18 81q-53 -114 -150 -168.5t-214 -54.5q-299 0 -299 352zM223 1329q0 59 34 96t95 37 q59 0 92 -36t33 -93q0 -58 -34.5 -94.5t-96.5 -36.5q-57 0 -90 36.5t-33 90.5zM631 1329q0 59 34 96t97 37q59 0 92 -36t33 -93q0 -58 -34.5 -94.5t-96.5 -36.5q-58 0 -91.5 36t-33.5 91z" />
<glyph unicode="&#xfd;" horiz-adv-x="1101" d="M123 340v680h233v-674q0 -184 136 -184q86 0 165.5 89t79.5 214v555h240l-10 -606q-1 -83 30 -215t31 -213q0 -211 -109 -320.5t-301 -109.5q-107 0 -221.5 32t-152.5 54l57 178l23 -10q24 -9 28.5 -10.5t27 -10t30.5 -11t29 -9.5t32.5 -10t30.5 -7.5t33 -6.5t31 -3.5 t32 -1.5q109 0 163 66.5t54 179.5q0 99 -41 202q-54 -102 -147.5 -151t-204.5 -49q-299 0 -299 352zM432 1208l348 387l156 -145q-72 -89 -173 -176t-166 -130l-65 -42z" />
<glyph unicode="&#xfe;" horiz-adv-x="1089" d="M133 -453v1897l234 41v-590q79 141 274 141q187 0 282 -135.5t95 -372.5q0 -235 -136.5 -387.5t-353.5 -152.5q-55 0 -161 12v-412zM367 172q83 -20 135 -20q75 0 127.5 26t81.5 75t42 111t13 144q0 66 -2.5 111.5t-12 97t-26.5 82t-48 51t-75 20.5q-65 0 -119.5 -55.5 t-85 -145t-30.5 -188.5v-309z" />
<glyph unicode="&#xff;" horiz-adv-x="1101" d="M123 340v680h233v-674q0 -184 136 -184q86 0 165.5 89t79.5 214v555h240l-10 -606q-1 -83 30 -215t31 -213q0 -211 -109 -320.5t-301 -109.5q-107 0 -221.5 32t-152.5 54l57 178l23 -10q24 -9 28.5 -10.5t27 -10t30.5 -11t29 -9.5t32.5 -10t30.5 -7.5t33 -6.5t31 -3.5 t32 -1.5q109 0 163 66.5t54 179.5q0 99 -41 202q-54 -102 -147.5 -151t-204.5 -49q-299 0 -299 352zM215 1329q0 59 34 96t95 37q59 0 92 -36t33 -93q0 -58 -34.5 -94.5t-96.5 -36.5q-57 0 -90 36.5t-33 90.5zM623 1329q0 59 34 96t97 37q59 0 92 -36t33 -93 q0 -58 -34.5 -94.5t-96.5 -36.5q-58 0 -91.5 36t-33.5 91z" />
<glyph unicode="&#x152;" horiz-adv-x="1748" d="M92 676q0 163 36.5 295t109.5 229.5t190 151t270 53.5q94 0 168 -19h801v-184h-582v-387h480l-31 -186h-449v-445h613v-184h-856q-118 -12 -170 -12q-580 0 -580 688zM356 698q0 -89 8.5 -161t31.5 -141.5t60.5 -116t99.5 -75t144 -28.5q42 0 144 12v1002q-83 27 -174 27 q-314 0 -314 -519z" />
<glyph unicode="&#x153;" horiz-adv-x="1638" d="M72 500q0 158 50.5 278.5t157.5 193t259 72.5q219 0 338 -159q137 159 358 159q173 0 256.5 -79.5t83.5 -210.5q0 -152 -162 -259t-426 -110q6 -51 19 -90t38.5 -72.5t68 -51t101.5 -17.5q53 0 125.5 18t118.5 36l47 17l62 -145q-7 -4 -20.5 -10t-55 -22.5t-84.5 -29 t-104.5 -22.5t-118.5 -10q-220 0 -336 145q-125 -151 -328 -151q-229 0 -338.5 134.5t-109.5 385.5zM324 520q0 -82 9.5 -144t32.5 -115t67 -81t108 -28q57 0 96.5 26t60 76t29 109t8.5 139q0 83 -9.5 145.5t-32.5 115.5t-67 81t-108 28q-57 0 -96.5 -26t-60 -76.5t-29 -110 t-8.5 -139.5zM983 532q93 4 165 25.5t113 54t61.5 68.5t20.5 74q0 59 -35 95t-91 36q-64 0 -111 -30.5t-72.5 -84t-37 -111.5t-13.5 -127z" />
<glyph unicode="&#x178;" horiz-adv-x="1112" d="M0 1386h264l291 -628l297 628h258l-436 -866v-520h-244v530zM223 1657q0 59 34 96t95 37q59 0 92 -36t33 -93q0 -58 -34.5 -94.5t-96.5 -36.5q-57 0 -90 36.5t-33 90.5zM631 1657q0 59 34 96t97 37q59 0 92 -36t33 -93q0 -58 -34.5 -94.5t-96.5 -36.5q-58 0 -91.5 36 t-33.5 91z" />
<glyph unicode="&#x2c6;" d="M143 1212l385 383l383 -383l-88 -110l-7 4q-8 5 -23.5 15t-36 23t-47.5 31.5t-55 39t-61.5 47t-64.5 53.5q-125 -107 -295 -212l-2 -1z" />
<glyph unicode="&#x2dc;" d="M193 1206v152q8 5 22 13t56 21t83 13q50 0 157 -20.5t157 -20.5q41 0 81.5 7t60.5 15l21 7v-152q-8 -5 -22.5 -13t-57 -21t-83.5 -13q-50 0 -157 20.5t-157 20.5q-41 0 -81 -7.5t-60 -14.5z" />
<glyph unicode="&#x2000;" horiz-adv-x="950" />
<glyph unicode="&#x2001;" horiz-adv-x="1901" />
<glyph unicode="&#x2002;" horiz-adv-x="950" />
<glyph unicode="&#x2003;" horiz-adv-x="1901" />
<glyph unicode="&#x2004;" horiz-adv-x="633" />
<glyph unicode="&#x2005;" horiz-adv-x="475" />
<glyph unicode="&#x2006;" horiz-adv-x="316" />
<glyph unicode="&#x2007;" horiz-adv-x="316" />
<glyph unicode="&#x2008;" horiz-adv-x="237" />
<glyph unicode="&#x2009;" horiz-adv-x="380" />
<glyph unicode="&#x200a;" horiz-adv-x="105" />
<glyph unicode="&#x2010;" horiz-adv-x="784" d="M102 569v170h580v-170h-580z" />
<glyph unicode="&#x2011;" horiz-adv-x="784" d="M102 569v170h580v-170h-580z" />
<glyph unicode="&#x2012;" horiz-adv-x="784" d="M102 569v170h580v-170h-580z" />
<glyph unicode="&#x2013;" d="M0 569v170h1024v-170h-1024z" />
<glyph unicode="&#x2014;" horiz-adv-x="1429" d="M0 569v170h1430v-170h-1430z" />
<glyph unicode="&#x2018;" horiz-adv-x="471" d="M41 1040q0 154 79.5 265.5t201.5 173.5l88 -119q-138 -99 -138 -234q0 -45 19 -112.5t20 -87.5q-37 -37 -133 -37q-68 0 -102.5 41t-34.5 110z" />
<glyph unicode="&#x2019;" horiz-adv-x="471" d="M61 1012q136 100 136 233q0 45 -19 113t-20 88q5 5 14.5 11t43.5 16t77 10q68 0 102.5 -41.5t34.5 -110.5q0 -154 -79 -265t-201 -173z" />
<glyph unicode="&#x201a;" horiz-adv-x="471" d="M61 -182q136 100 136 233q0 45 -19 113t-20 88q5 5 14.5 11t43.5 16t77 10q68 0 102.5 -41.5t34.5 -110.5q0 -154 -79 -265t-201 -173z" />
<glyph unicode="&#x201c;" horiz-adv-x="880" d="M41 1040q0 154 79.5 265.5t201.5 173.5l88 -119q-138 -99 -138 -234q0 -45 19 -112.5t20 -87.5q-37 -37 -133 -37q-68 0 -102.5 41t-34.5 110zM449 1040q0 154 80 265.5t202 173.5l86 -119q-135 -99 -135 -234q0 -45 19 -112.5t20 -87.5q-5 -5 -14.5 -11t-43 -16 t-75.5 -10q-69 0 -104 41t-35 110z" />
<glyph unicode="&#x201d;" horiz-adv-x="880" d="M61 1018q136 100 136 233q0 45 -19 113t-20 88q5 5 14.5 11t43.5 16t77 10q68 0 102.5 -41.5t34.5 -110.5q0 -154 -79 -265t-201 -173zM471 1018q135 99 135 233q0 45 -19 113t-20 88q5 5 14.5 11t43 16t75.5 10q69 0 104.5 -41.5t35.5 -110.5q0 -154 -80.5 -265 t-202.5 -173z" />
<glyph unicode="&#x201e;" horiz-adv-x="880" d="M61 -182q136 100 136 233q0 45 -19 113t-20 88q5 5 14.5 11t43.5 16t77 10q68 0 102.5 -41.5t34.5 -110.5q0 -154 -79 -265t-201 -173zM471 -182q135 99 135 233q0 45 -19 113t-20 88q5 5 14.5 11t43 16t75.5 10q69 0 104.5 -41.5t35.5 -110.5q0 -154 -80.5 -265 t-202.5 -173z" />
<glyph unicode="&#x2022;" horiz-adv-x="643" d="M102 647q0 100 60 159.5t160 59.5t159.5 -59.5t59.5 -159.5t-59.5 -159.5t-159.5 -59.5t-160 59.5t-60 159.5z" />
<glyph unicode="&#x202f;" horiz-adv-x="380" />
<glyph unicode="&#x2039;" horiz-adv-x="710" d="M102 502q70 89 180.5 200t185.5 178l75 66l96 -110l-266 -334l266 -334l-96 -111q-32 27 -83 73t-169.5 164.5t-188.5 207.5z" />
<glyph unicode="&#x203a;" horiz-adv-x="710" d="M72 168l266 334l-266 334l98 110q31 -27 82 -73t168.5 -164t187.5 -207q-70 -89 -179.5 -200.5t-184.5 -177.5l-74 -67z" />
<glyph unicode="&#x205f;" horiz-adv-x="475" />
<glyph unicode="&#x20ac;" horiz-adv-x="1134" d="M72 381v180h98q-2 23 -2 72q0 35 2 53h-98v182h123q52 207 189 328t329 121q193 0 307 -139l-117 -146q-92 103 -215 103q-87 0 -150.5 -72.5t-93.5 -194.5h443l-31 -182h-436q0 -4 -1 -21t-1 -32q0 -29 6 -72h422l-31 -180h-356q77 -211 248 -211q41 0 86 7.5t74.5 16.5 t55.5 17.5t29 9.5l52 -168l-4 -1q-4 -2 -14.5 -6t-24 -9t-33 -10.5t-40.5 -11t-47.5 -10.5t-53.5 -8.5t-59 -6t-64 -2.5q-172 0 -295.5 101t-173.5 292h-123z" />
<glyph unicode="&#x25fc;" d="M0 0v1024h1024v-1024h-1024z" />
</font>
</defs>
</svg>
