<?xml version="1.0" standalone="no"?> <!DOCTYPE svg PUBLIC "-//W3C//DTD SVG 1.0//EN" "http://www.w3.org/TR/2001/REC-SVG-20010904/DTD/svg10.dtd" > <svg xmlns="http://www.w3.org/2000/svg" width="100%" height="100%">
<defs >
<font id="helveticalt35thin" horiz-adv-x="848" ><font-face
    font-family="HelveticaNeue LT 35 Thin"
    units-per-em="2048"
    panose-1="2 11 4 4 2 0 2 2 2 3"
    ascent="1898"
    descent="-438"
    alphabetic="0" />
<missing-glyph horiz-adv-x="1024" d="M905 16V1032H119V16H905ZM102 1049H922V0H102V1049Z" />
<glyph unicode=" " glyph-name="space" horiz-adv-x="569" />
<glyph unicode="!" glyph-name="exclam" horiz-adv-x="530" d="M217 1462V969L242 375H291L315 969V1462H217ZM317 0V211H213V0H317Z" />
<glyph unicode="&quot;" glyph-name="quotedbl" horiz-adv-x="645" d="M164 993H242V1462H164V993ZM403 993H481V1462H403V993Z" />
<glyph unicode="#" glyph-name="numbersign" horiz-adv-x="1139" d="M848 1413L784 962H438L502 1413H434L371 962H119V895H360L311 541H61V473H301L236 0H303L369 473H715L649 0H717L782 473H1020V541H793L842 895H1077V962H852L915 1413H848ZM428 895H774L725
541H379L428 895Z" />
<glyph unicode="$" glyph-name="dollar" horiz-adv-x="1139" d="M594 711L719 680Q1028 604 1026 375Q1024 201 899 123Q774 41 594 43V711ZM528 805L444 823Q319 848 236 909Q195 940 172 989Q147 1038 147 1108Q145 1239 236 1325Q326 1411 528 1419V805ZM528
-215H594V-35Q793 -35 946 61Q1100 154 1104 375Q1106 504 1032 600Q952 696 754 747L594 786V1421Q774 1421 876 1333Q979 1247 991 1046H1069Q1036 1501 594 1497V1597H528V1497Q371 1491 276 1446Q184 1399 139 1333Q117 1302 104 1270Q90 1237 82 1206Q68 1143
70 1108Q70 1016 102 954Q133 891 186 850Q240 811 305 786Q367 762 432 747L528 725V43Q102 82 102 481H25Q27 221 166 102Q301 -16 528 -35V-215Z" />
<glyph unicode="%" glyph-name="percent" horiz-adv-x="1593" d="M283 -49H365L1317 1462H1235L283 -49ZM1171 -25Q1331 -23 1421 86Q1509 188 1511 338Q1511 498 1423 600Q1337 702 1173 704Q1014 702 924 598Q831 496 831 338Q831 186 926 84Q1016 -23 1171
-25ZM1169 43Q1049 45 981 135Q909 223 909 338Q909 463 979 549Q1044 635 1171 637Q1300 635 1368 549Q1433 463 1433 338Q1433 223 1364 135Q1294 45 1169 43ZM422 709Q582 711 672 819Q760 922 762 1071Q762 1231 674 1333Q588 1436 424 1438Q264 1436 174 1331Q82
1229 82 1071Q82 919 176 817Q266 711 422 709ZM420 776Q299 778 231 868Q160 956 160 1071Q160 1196 229 1282Q295 1368 422 1370Q551 1368 618 1282Q684 1196 684 1071Q684 956 614 868Q545 778 420 776Z" />
<glyph unicode="&amp;" glyph-name="ampersand" horiz-adv-x="1214" d="M537 844Q512 881 481 922Q451 958 418 999Q389 1042 371 1087Q348 1135 348 1186Q350 1270 422 1321Q491 1368 577 1370Q668 1368 735 1321Q805 1270 807 1186Q807 1124 782 1075Q758 1024
717 983Q631 901 537 844ZM510 750L887 281Q891 258 799 158Q754 113 686 80Q614 43 522 43Q385 43 279 125Q168 203 166 348Q166 428 201 487Q233 547 283 592Q334 639 393 678Q453 715 510 750ZM938 217L1116 0H1221L983 293Q1046 438 1057 602H979Q977 475 930
358L582 786Q637 827 692 866Q745 903 788 948Q831 993 860 1051Q885 1110 885 1186Q883 1309 793 1374Q702 1438 577 1438Q459 1436 369 1370Q272 1300 270 1186Q270 1130 291 1081Q309 1030 338 983Q397 893 469 807Q405 768 340 725Q274 684 217 629Q160 577
125 510Q88 440 88 348Q90 164 215 72Q336 -25 522 -25Q795 -20 938 217Z" />
<glyph unicode="&apos;" glyph-name="quotesingle" horiz-adv-x="418" d="M170 993H248V1462H170V993Z" />
<glyph unicode="(" glyph-name="parenleft" horiz-adv-x="494" d="M467 -377Q211 51 211 545Q213 1055 473 1497H401Q137 1057 133 545Q137 45 397 -377H467Z" />
<glyph unicode=")" glyph-name="parenright" horiz-adv-x="494" d="M27 1497Q283 1071 283 575Q281 66 20 -377H92Q356 63 360 575Q356 1075 96 1497H27Z" />
<glyph unicode="*" glyph-name="asterisk" horiz-adv-x="721" d="M330 1462V1196L78 1280L59 1223L313 1139L147 930L197 889L360 1106L518 889L563 930L408 1139L659 1223L639 1280L389 1196V1462H330Z" />
<glyph unicode="+" glyph-name="plus" horiz-adv-x="1229" d="M575 555H98V477H575V0H653V477H1130V555H653V1032H575V555Z" />
<glyph unicode="," glyph-name="comma" horiz-adv-x="569" d="M205 -258Q281 -227 309 -154Q336 -82 336 0V211H231V0H274Q274 -45 264 -104Q258 -131 244 -154Q229 -178 205 -190V-258Z" />
<glyph unicode="-" glyph-name="hyphen" horiz-adv-x="721" d="M580 518V596H141V518H580Z" />
<glyph unicode="." glyph-name="period" horiz-adv-x="569" d="M336 0V211H231V0H336Z" />
<glyph unicode="/" glyph-name="slash" horiz-adv-x="682" d="M57 -35L709 1497H625L-27 -35H57Z" />
<glyph unicode="0" glyph-name="zero" horiz-adv-x="1139" d="M569 -25Q870 -16 981 215Q1038 322 1061 451Q1081 580 1081 707Q1081 838 1061 967Q1038 1096 981 1202Q924 1309 823 1374Q723 1438 569 1438Q420 1438 319 1374Q219 1309 162 1202Q53 977 57 707Q57
580 82 451Q104 322 162 215Q272 -16 569 -25ZM569 43Q438 43 354 109Q270 172 221 270Q174 371 156 485Q135 600 135 707Q135 817 156 932Q174 1046 221 1147Q270 1247 354 1309Q438 1368 569 1370Q704 1368 788 1309Q874 1247 922 1147Q971 1046 987 932Q1003
817 1003 707Q1003 600 987 485Q971 371 922 270Q874 172 788 109Q704 43 569 43Z" />
<glyph unicode="1" glyph-name="one" horiz-adv-x="1139" d="M678 1413H608Q475 1192 221 1149V1081Q442 1102 600 1261V0H678V1413Z" />
<glyph unicode="2" glyph-name="two" horiz-adv-x="1139" d="M192 78Q211 209 336 311Q459 414 616 512Q776 612 893 741Q1012 868 1014 1051Q1012 1247 887 1343Q762 1438 575 1438Q158 1438 129 936H207Q207 1124 301 1245Q395 1368 588 1370Q731 1368 831 1284Q934
1200 936 1053Q932 879 809 764Q686 647 526 547Q367 448 240 324Q180 260 141 180Q100 100 94 0H1036V78H192Z" />
<glyph unicode="3" glyph-name="three" horiz-adv-x="1139" d="M74 467Q74 -18 563 -25Q766 -25 903 80Q1042 184 1046 391Q1046 539 965 637Q883 735 737 754V758Q864 778 940 866Q1012 954 1014 1081Q1010 1272 874 1356Q741 1438 563 1438Q352 1436 233 1309Q113
1180 109 967H186Q195 1147 287 1257Q379 1368 563 1370Q700 1370 815 1300Q932 1231 936 1081Q932 901 795 840Q729 807 651 795Q573 782 494 784V717Q584 725 668 713Q752 700 819 664Q965 590 969 391Q965 223 846 133Q727 43 563 43Q156 51 152 467H74Z" />
<glyph unicode="4" glyph-name="four" horiz-adv-x="1139" d="M747 1413L59 438V360H747V0H825V360H1063V428H825V1413H747ZM747 428H137L743 1307H747V428Z" />
<glyph unicode="5" glyph-name="five" horiz-adv-x="1139" d="M119 682H199Q328 881 561 881Q739 879 850 762Q960 643 962 467Q960 289 854 170Q745 45 561 43Q387 43 272 152Q156 256 154 432H76Q70 217 211 98Q352 -23 561 -25Q778 -23 907 117Q1038 254 1040
467Q1038 682 907 815Q778 946 561 948Q342 948 211 778L207 782L328 1345H981V1413H266L119 682Z" />
<glyph unicode="6" glyph-name="six" horiz-adv-x="1139" d="M590 43Q420 45 309 162Q192 272 190 451Q192 627 305 745Q412 864 590 866Q766 864 874 743Q983 623 985 451Q983 281 874 164Q764 45 590 43ZM1038 1065Q1018 1245 903 1341Q786 1438 606 1438Q444
1436 344 1364Q242 1288 184 1169Q129 1051 109 911Q86 772 86 637Q84 371 192 178Q301 -18 590 -25Q801 -23 930 113Q1061 244 1063 451Q1061 664 932 797Q803 932 590 934Q446 934 332 852Q217 770 168 631L164 635Q164 743 180 868Q195 995 240 1108Q285 1225
375 1296Q463 1368 606 1370Q750 1368 844 1286Q938 1204 960 1065H1038Z" />
<glyph unicode="7" glyph-name="seven" horiz-adv-x="1139" d="M115 1345H948Q596 958 469 631Q344 301 328 0H418Q473 512 641 811Q809 1110 1026 1335V1413H115V1345Z" />
<glyph unicode="8" glyph-name="eight" horiz-adv-x="1139" d="M981 405Q979 219 858 131Q739 43 569 43Q401 43 283 131Q160 219 158 405Q160 582 283 659Q399 735 569 735Q741 735 860 659Q979 582 981 405ZM133 1083Q133 836 393 774V770Q86 721 80 405Q82
188 225 82Q362 -25 569 -25Q778 -25 917 82Q1057 188 1059 405Q1053 721 745 770V774Q1005 836 1005 1083Q1001 1282 870 1362Q741 1440 569 1438Q399 1440 270 1362Q137 1282 133 1083ZM928 1083Q926 934 819 868Q713 803 569 803Q428 803 324 868Q213 934 211
1083Q213 1243 322 1309Q426 1372 569 1370Q717 1372 819 1309Q926 1243 928 1083Z" />
<glyph unicode="9" glyph-name="nine" horiz-adv-x="1139" d="M571 547Q399 549 287 672Q174 790 172 962Q174 1137 287 1251Q399 1368 571 1370Q747 1368 858 1251Q969 1137 971 962Q969 786 860 670Q750 549 571 547ZM113 348Q137 170 252 74Q369 -23 545 -25Q711
-23 813 53Q917 129 971 248Q1026 367 1046 508Q1065 645 1065 776Q1065 987 1020 1120Q977 1251 901 1321Q829 1390 743 1417Q655 1438 571 1438Q362 1436 231 1304Q96 1175 94 962Q96 747 227 616Q356 481 571 479Q737 481 840 565Q940 645 983 766L987 762Q987
668 975 545Q958 422 913 309Q868 197 780 123Q690 45 545 43Q405 43 311 129Q217 211 190 348H113Z" />
<glyph unicode=":" glyph-name="colon" horiz-adv-x="569" d="M231 1053V842H336V1053H231ZM336 0V211H231V0H336Z" />
<glyph unicode=";" glyph-name="semicolon" horiz-adv-x="569" d="M205 -258Q281 -227 309 -154Q336 -82 336 0V211H231V0H274Q274 -45 264 -104Q258 -131 244 -154Q229 -178 205 -190V-258ZM231 1053V842H336V1053H231Z" />
<glyph unicode="&lt;" glyph-name="less" horiz-adv-x="1229" d="M1135 1053L94 573V467L1135 -16V70L162 520L1135 967V1053Z" />
<glyph unicode="=" glyph-name="equal" horiz-adv-x="1229" d="M1130 756H98V678H1130V756ZM1130 358H98V281H1130V358Z" />
<glyph unicode="&gt;" glyph-name="greater" horiz-adv-x="1229" d="M94 -16L1135 463V569L94 1053V967L1067 516L94 70V-16Z" />
<glyph unicode="?" glyph-name="question" horiz-adv-x="1063" d="M166 1010Q166 1188 260 1302Q352 1417 537 1419Q670 1419 766 1352Q864 1282 866 1130Q864 1024 805 942Q743 860 664 790Q588 723 537 629Q483 530 483 371H561Q561 463 582 528Q600 594 629
639Q659 684 694 721Q729 756 762 782Q799 815 831 852Q864 887 889 926Q913 967 930 1018Q944 1067 944 1130Q942 1317 825 1409Q711 1497 543 1497Q322 1495 207 1364Q88 1231 88 1010H166ZM473 0H577V211H473V0Z" />
<glyph unicode="@" glyph-name="at" horiz-adv-x="1638" d="M870 1120Q936 1120 975 1094Q1012 1069 1030 1030Q1049 991 1055 950Q1059 909 1059 879Q1055 690 926 500Q876 430 813 385Q752 338 688 338Q598 338 541 408Q477 473 477 588Q479 764 588 936Q641
1018 713 1069Q784 1120 870 1120ZM1247 1147H1163L1116 1001H1112Q1100 1077 1040 1132Q981 1186 883 1188Q668 1182 537 991Q473 903 438 797Q399 688 399 577Q399 451 473 365Q543 272 661 270Q833 270 936 416H940Q944 344 983 307Q1022 270 1075 270Q1245
274 1390 451Q1540 623 1544 860Q1540 1145 1343 1319Q1149 1495 850 1497Q534 1493 319 1276Q98 1063 94 737Q96 410 313 192Q526 -31 858 -35Q1288 -27 1511 344H1421Q1216 39 858 33Q592 35 387 227Q176 418 172 723Q176 1020 375 1221Q567 1425 854 1429Q1092
1427 1276 1278Q1462 1128 1466 866Q1462 684 1354 522Q1302 444 1237 397Q1169 348 1098 348Q1065 348 1042 369Q1018 387 1018 418Q1018 440 1030 475Q1040 510 1051 541L1247 1147Z" />
<glyph unicode="A" glyph-name="A" horiz-adv-x="1214" d="M563 1462L-25 0H72L258 469H958L1143 0H1239L661 1462H563ZM287 547L612 1374H616L930 547H287Z" />
<glyph unicode="B" glyph-name="B" horiz-adv-x="1290" d="M219 721H715Q790 721 864 711Q936 696 999 659Q1063 627 1100 565Q1135 504 1135 410Q1126 80 715 78H219V721ZM129 0H715Q948 0 1085 106Q1223 209 1225 410Q1223 520 1182 594Q1137 664 1075 702Q1016
743 965 758Q913 772 895 768L891 772Q1022 790 1098 879Q1173 965 1175 1083Q1175 1155 1155 1225Q1132 1292 1077 1345Q1026 1399 936 1431Q848 1462 715 1462H129V0ZM219 1384H715Q866 1384 975 1323Q1083 1257 1085 1100Q1083 807 715 799H219V1384Z" />
<glyph unicode="C" glyph-name="C" horiz-adv-x="1442" d="M1358 1026Q1360 1038 1339 1110Q1319 1182 1259 1270Q1200 1360 1083 1427Q965 1495 770 1497Q438 1493 258 1276Q76 1063 74 731Q76 403 258 190Q348 86 477 27Q606 -33 770 -35Q1018 -31 1186 139Q1354
303 1382 569H1292Q1276 360 1132 205Q989 47 770 43Q481 47 326 248Q164 444 164 731Q164 1022 326 1216Q481 1415 770 1419Q958 1417 1098 1315Q1235 1212 1268 1026H1358Z" />
<glyph unicode="D" glyph-name="D" horiz-adv-x="1366" d="M219 1384H594Q680 1384 782 1368Q883 1350 977 1284Q1071 1221 1132 1089Q1192 956 1194 733Q1188 362 1008 217Q829 74 612 78H219V1384ZM129 0H604Q956 2 1122 213Q1284 416 1284 733Q1288 1024 1145
1239Q995 1456 608 1462H129V0Z" />
<glyph unicode="E" glyph-name="E" horiz-adv-x="1147" d="M219 78V721H1059V799H219V1384H1112V1462H129V0H1122V78H219Z" />
<glyph unicode="F" glyph-name="F" horiz-adv-x="1053" d="M965 721V799H219V1384H1046V1462H129V0H219V721H965Z" />
<glyph unicode="G" glyph-name="G" horiz-adv-x="1517" d="M782 717V639H1321Q1329 369 1182 207Q1034 45 768 43Q467 47 317 244Q166 436 166 723Q166 1005 322 1208Q473 1415 768 1419Q1178 1411 1288 1010H1374Q1333 1243 1165 1370Q997 1495 766 1497Q436
1491 258 1266Q76 1044 76 723Q76 401 254 188Q342 86 471 27Q598 -33 764 -35Q960 -33 1112 59Q1261 149 1317 311H1321V0H1399V717H782Z" />
<glyph unicode="H" glyph-name="H" horiz-adv-x="1372" d="M1153 721V0H1243V1462H1153V799H219V1462H129V0H219V721H1153Z" />
<glyph unicode="I" glyph-name="I" horiz-adv-x="348" d="M129 0H219V1462H129V0Z" />
<glyph unicode="J" glyph-name="J" horiz-adv-x="985" d="M41 465Q39 385 53 297Q63 211 102 135Q141 61 225 14Q309 -33 455 -35Q608 -33 692 18Q774 70 809 147Q844 225 852 307Q856 389 856 455V1462H766V485Q766 410 764 334Q760 256 733 190Q707 125 641
86Q571 43 444 43Q338 43 272 80Q207 115 174 174Q143 233 135 309Q127 385 131 465H41Z" />
<glyph unicode="K" glyph-name="K" horiz-adv-x="1255" d="M129 0H219V516L522 793L1184 0H1296L588 854L1255 1462H1139L219 620V1462H129V0Z" />
<glyph unicode="L" glyph-name="L" horiz-adv-x="1024" d="M129 0H1049V78H219V1462H129V0Z" />
<glyph unicode="M" glyph-name="M" horiz-adv-x="1657" d="M129 0H219V1352H223L786 0H876L1433 1352H1438V0H1528V1462H1399L833 100H829L258 1462H129V0Z" />
<glyph unicode="N" glyph-name="N" horiz-adv-x="1388" d="M129 0H219V1352H223L1153 0H1259V1462H1169V121H1165L242 1462H129V0Z" />
<glyph unicode="O" glyph-name="O" horiz-adv-x="1517" d="M1454 731Q1452 1063 1272 1276Q1092 1493 760 1497Q428 1493 248 1276Q66 1063 63 731Q66 403 248 190Q338 86 467 27Q596 -33 760 -35Q926 -33 1055 27Q1184 86 1272 190Q1452 403 1454 731ZM154 731Q154
1022 315 1216Q471 1415 760 1419Q1049 1415 1206 1216Q1362 1022 1364 731Q1362 444 1206 248Q1049 47 760 43Q471 47 315 248Q154 444 154 731Z" />
<glyph unicode="P" glyph-name="P" horiz-adv-x="1210" d="M219 1384H745Q856 1384 926 1350Q993 1315 1028 1261Q1063 1208 1077 1155Q1087 1100 1087 1055Q1087 999 1071 942Q1053 885 1010 838Q971 790 903 762Q833 729 733 729H219V1384ZM129 0H219V651H719Q1171
655 1178 1053Q1178 1184 1137 1266Q1096 1347 1028 1390Q962 1433 891 1450Q817 1462 752 1462H129V0Z" />
<glyph unicode="Q" glyph-name="Q" horiz-adv-x="1517" d="M1163 203L928 373L881 309L1102 152Q962 43 760 43Q471 47 315 248Q154 444 154 731Q154 1022 315 1216Q471 1415 760 1419Q1049 1415 1206 1216Q1362 1022 1364 731Q1362 405 1163 203ZM1173 98L1415
-76L1462 -12L1235 152Q1452 365 1454 731Q1452 1063 1272 1276Q1092 1493 760 1497Q428 1493 248 1276Q66 1063 63 731Q66 403 248 190Q338 86 467 27Q596 -33 760 -35Q1008 -33 1173 98Z" />
<glyph unicode="R" glyph-name="R" horiz-adv-x="1290" d="M219 743V1384H739Q893 1384 1001 1317Q1110 1245 1112 1079Q1110 905 1008 825Q903 743 739 743H219ZM129 0H219V666H739Q838 666 901 647Q965 627 1001 592Q1040 559 1061 512Q1079 465 1083 410Q1092
301 1089 190Q1089 137 1098 90Q1102 66 1108 45Q1114 20 1122 0H1223Q1184 61 1184 170Q1182 276 1173 393Q1169 510 1108 600Q1077 643 1026 672Q971 696 889 707V711Q1196 776 1202 1085Q1200 1294 1069 1380Q938 1464 739 1462H129V0Z" />
<glyph unicode="S" glyph-name="S" horiz-adv-x="1290" d="M1173 1044Q1159 1284 1005 1393Q850 1497 614 1497Q434 1497 283 1409Q127 1319 123 1108Q123 1005 168 938Q209 872 281 829Q352 790 440 766Q483 754 530 743Q573 731 620 719Q717 702 807 682Q893
661 965 625Q1036 588 1079 530Q1120 471 1120 377Q1120 283 1081 219Q1040 156 975 117Q911 78 840 61Q766 43 696 43Q475 41 319 145Q166 248 170 483H80Q84 205 260 84Q434 -35 696 -35Q876 -35 1038 59Q1204 152 1210 377Q1210 487 1169 559Q1126 629 1055
672Q983 715 897 741Q807 766 711 782Q664 795 620 805Q573 813 530 825Q442 846 371 879Q299 911 258 969Q213 1024 213 1108Q213 1200 254 1259Q293 1321 352 1356Q481 1421 614 1419Q819 1419 948 1327Q1075 1233 1083 1044H1173Z" />
<glyph unicode="T" glyph-name="T" horiz-adv-x="1063" d="M485 1384V0H575V1384H1092V1462H-29V1384H485Z" />
<glyph unicode="U" glyph-name="U" horiz-adv-x="1376" d="M129 1462V586Q127 512 143 408Q158 303 209 203Q262 102 375 35Q487 -33 678 -35Q1001 -31 1128 147Q1249 319 1247 586V1462H1157V586Q1159 334 1055 190Q944 45 678 43Q522 45 430 104Q336 162 291
250Q248 338 233 428Q219 520 219 586V1462H129Z" />
<glyph unicode="V" glyph-name="V" horiz-adv-x="1139" d="M66 1462H-29L516 0H620L1167 1462H1077L571 78H567L66 1462Z" />
<glyph unicode="W" glyph-name="W" horiz-adv-x="1821" d="M410 0H510L905 1384H909L1311 0H1413L1833 1462H1737L1362 96H1358L965 1462H852L465 96H461L80 1462H-12L410 0Z" />
<glyph unicode="X" glyph-name="X" horiz-adv-x="1139" d="M514 752L-35 0H72L569 684L1065 0H1173L629 752L1145 1462H1042L569 819L106 1462H2L514 752Z" />
<glyph unicode="Y" glyph-name="Y" horiz-adv-x="1175" d="M588 688L59 1462H-43L541 612V0H631V612L1218 1462H1118L588 688Z" />
<glyph unicode="Z" glyph-name="Z" horiz-adv-x="1100" d="M57 1384H985L-2 78V0H1102V78H92L1083 1384V1462H57V1384Z" />
<glyph unicode="[" glyph-name="bracketleft" horiz-adv-x="494" d="M473 1429V1497H192V-377H473V-309H270V1429H473Z" />
<glyph unicode="\" glyph-name="backslash" horiz-adv-x="682" d="M709 -35L57 1497H-27L625 -35H709Z" />
<glyph unicode="]" glyph-name="bracketright" horiz-adv-x="494" d="M20 -309V-377H301V1497H20V1429H223V-309H20Z" />
<glyph unicode="^" glyph-name="asciicircum" horiz-adv-x="1229" d="M1149 485L670 1413H563L80 485H166L616 1345L1063 485H1149Z" />
<glyph unicode="_" glyph-name="underscore" horiz-adv-x="1024" d="M1024 -256V-154H0V-256H1024Z" />
<glyph unicode="`" glyph-name="grave" horiz-adv-x="342" d="M289 1210L43 1497H-61L213 1210H289Z" />
<glyph unicode="a" glyph-name="a" horiz-adv-x="1024" d="M813 598V401Q813 381 803 324Q790 266 752 203Q713 139 633 94Q555 43 420 43Q283 45 215 111Q143 174 143 272Q145 498 432 516Q549 528 657 541Q711 547 750 561Q790 573 813 598ZM891 803Q889 962
776 1022Q666 1079 522 1077Q143 1077 121 729H199Q227 1008 522 1010Q614 1010 672 987Q729 960 760 926Q793 891 805 858Q815 823 815 803Q815 739 809 702Q801 664 766 639Q704 598 453 584Q422 584 389 580Q356 573 322 565Q254 551 195 516Q137 483 102 426Q66
365 66 272Q68 109 168 43Q266 -25 418 -25Q569 -23 672 47Q772 115 809 209H813V154Q811 88 840 47Q864 0 954 0Q985 0 1018 8V74Q981 68 960 68Q911 68 901 109Q889 147 891 195V803Z" />
<glyph unicode="b" glyph-name="b" horiz-adv-x="1139" d="M614 43Q401 47 307 201Q211 350 213 551Q213 754 311 881Q410 1008 614 1010Q805 1005 899 868Q993 733 993 551Q993 360 909 207Q864 135 793 90Q719 43 614 43ZM133 0H211V236H215Q225 184 317 86Q367
43 440 10Q514 -23 614 -25Q672 -25 750 -4Q825 16 899 76Q971 137 1022 252Q1069 365 1071 551Q1071 776 960 926Q848 1075 614 1077Q485 1077 375 1016Q264 954 215 829H211V1462H133V0Z" />
<glyph unicode="c" glyph-name="c" horiz-adv-x="1063" d="M985 727Q967 907 846 993Q727 1077 551 1077Q317 1073 192 917Q68 764 68 537Q68 311 182 147Q297 -20 551 -25Q725 -23 848 80Q969 182 995 371H917Q897 223 799 135Q700 45 551 43Q348 45 248 184Q145
322 145 537Q145 725 252 864Q354 1005 551 1010Q698 1010 797 940Q895 868 907 727H985Z" />
<glyph unicode="d" glyph-name="d" horiz-adv-x="1139" d="M537 43Q334 47 240 192Q143 332 143 524Q141 723 236 864Q328 1005 534 1010Q737 1005 833 860Q926 717 926 524Q926 336 831 195Q737 47 537 43ZM928 0H1005V1462H928V817H924Q905 881 866 930Q827
979 774 1012Q668 1077 534 1077Q299 1075 182 919Q66 764 66 524Q63 299 176 141Q285 -20 520 -25Q799 -25 924 225H928V0Z" />
<glyph unicode="e" glyph-name="e" horiz-adv-x="1063" d="M995 516Q1008 752 895 911Q780 1073 532 1077Q297 1073 180 903Q63 735 68 508Q66 285 184 133Q301 -20 532 -25Q917 -20 987 356H909Q842 47 532 43Q338 45 242 188Q143 326 145 516H995ZM145 584Q160
747 258 876Q356 1005 532 1010Q715 1005 815 881Q913 756 917 584H145Z" />
<glyph unicode="f" glyph-name="f" horiz-adv-x="494" d="M188 985V0H266V985H485V1053H266V1264Q266 1352 313 1382Q354 1411 420 1411Q467 1411 512 1401V1468Q467 1479 420 1479Q322 1479 258 1431Q188 1380 188 1270V1053H0V985H188Z" />
<glyph unicode="g" glyph-name="g" horiz-adv-x="1100" d="M522 1010Q717 1005 811 874Q905 743 905 559Q905 375 811 246Q717 109 522 106Q338 109 242 242Q145 371 145 559Q145 735 240 870Q332 1005 522 1010ZM907 1053V833H903Q858 954 754 1016Q649 1077
522 1077Q301 1073 186 924Q68 776 68 559Q68 336 180 190Q293 41 522 39Q790 41 903 279H907V37Q907 10 903 -47Q895 -106 860 -174Q825 -238 747 -283Q670 -332 532 -334Q399 -334 307 -272Q213 -211 197 -74H119Q131 -252 246 -328Q358 -401 530 -401Q700 -401
795 -344Q889 -289 930 -207Q971 -125 979 -51Q985 23 985 55V1053H907Z" />
<glyph unicode="h" glyph-name="h" horiz-adv-x="1063" d="M115 1462V0H192V569Q192 766 295 887Q395 1008 571 1010Q678 1008 741 973Q803 938 829 881Q858 825 866 768Q870 709 870 666V0H948V651Q948 702 944 774Q936 844 901 913Q868 983 790 1030Q713 1075
573 1077Q448 1077 344 1014Q240 948 197 827H192V1462H115Z" />
<glyph unicode="i" glyph-name="i" horiz-adv-x="344" d="M211 0V1053H133V0H211ZM211 1251V1462H133V1251H211Z" />
<glyph unicode="j" glyph-name="j" horiz-adv-x="344" d="M133 1053V-106Q133 -223 100 -268Q63 -311 -18 -311Q-51 -311 -70 -307V-375Q-37 -377 -4 -377Q129 -375 172 -297Q197 -260 205 -211Q211 -164 211 -113V1053H133ZM211 1251V1462H133V1251H211Z" />
<glyph unicode="k" glyph-name="k" horiz-adv-x="948" d="M119 0H197V397L436 600L885 0H991L498 659L958 1053H846L197 494V1462H119V0Z" />
<glyph unicode="l" glyph-name="l" horiz-adv-x="344" d="M133 1462V0H211V1462H133Z" />
<glyph unicode="m" glyph-name="m" horiz-adv-x="1630" d="M117 0H195V623Q199 825 307 919Q410 1010 528 1010Q557 1010 598 1003Q637 995 678 965Q719 938 747 881Q776 821 776 721V0H854V623Q854 813 948 911Q1040 1010 1184 1010Q1210 1010 1251 1003Q1292
995 1333 967Q1378 940 1407 883Q1436 821 1436 721V0H1513V719Q1511 905 1421 993Q1331 1077 1184 1077Q936 1075 850 854H846Q831 940 756 1008Q717 1040 661 1059Q604 1077 528 1077Q410 1075 317 1008Q225 942 199 838H195V1053H117V0Z" />
<glyph unicode="n" glyph-name="n" horiz-adv-x="1063" d="M115 0H192V569Q192 766 295 887Q395 1008 571 1010Q678 1008 741 973Q803 938 829 881Q858 825 866 768Q870 709 870 666V0H948V651Q948 702 944 774Q936 844 901 913Q868 983 790 1030Q713 1075 573
1077Q448 1077 344 1014Q240 948 197 827H192V1053H115V0Z" />
<glyph unicode="o" glyph-name="o" horiz-adv-x="1100" d="M66 526Q66 297 192 139Q317 -20 549 -25Q784 -20 907 139Q1032 297 1032 526Q1032 758 907 915Q784 1073 549 1077Q317 1073 192 915Q66 758 66 526ZM143 526Q143 723 250 864Q352 1005 549 1010Q750
1005 852 864Q954 723 954 526Q954 332 852 192Q750 47 549 43Q352 47 250 192Q143 332 143 526Z" />
<glyph unicode="p" glyph-name="p" horiz-adv-x="1139" d="M598 43Q381 47 295 192Q211 332 213 524Q211 719 301 862Q391 1005 598 1010Q809 1005 903 858Q993 713 993 524Q993 326 901 186Q803 45 598 43ZM211 1053H133V-377H211V219H215Q264 94 367 35Q467
-25 598 -25Q840 -23 956 131Q1071 281 1071 524Q1071 756 956 913Q840 1073 598 1077Q426 1073 334 985Q240 899 215 811H211V1053Z" />
<glyph unicode="q" glyph-name="q" horiz-adv-x="1139" d="M534 43Q328 47 236 192Q141 332 143 528Q143 723 240 864Q334 1005 537 1010Q737 1005 831 860Q926 717 926 528Q926 338 833 195Q737 47 534 43ZM928 -377H1005V1053H928V827H924Q799 1077 520 1077Q285
1073 176 913Q63 754 66 528Q66 291 182 137Q299 -20 534 -25Q668 -23 774 45Q881 111 924 236H928V-377Z" />
<glyph unicode="r" glyph-name="r" horiz-adv-x="569" d="M192 1053H115V0H192V575Q199 692 227 758Q254 823 311 879Q385 948 463 971Q539 991 602 981V1059Q457 1063 346 995Q233 926 199 819H192V1053Z" />
<glyph unicode="s" glyph-name="s" horiz-adv-x="985" d="M74 350Q84 166 201 72Q317 -25 500 -25Q571 -25 645 -10Q717 4 776 37Q840 72 876 129Q911 184 911 266Q911 348 883 403Q854 457 805 489Q700 553 539 575Q508 584 477 592Q446 598 414 604Q383 614
356 623Q326 631 301 643Q250 668 221 707Q188 745 188 807Q188 866 217 905Q244 942 287 967Q379 1010 491 1010Q627 1010 715 948Q801 885 803 741H881Q879 922 772 1001Q664 1077 491 1077Q352 1079 236 1022Q180 991 147 940Q111 887 111 807Q111 727 143 676Q172
625 225 592Q279 561 342 543Q405 522 473 508Q541 496 606 481Q672 467 721 442Q774 420 805 377Q833 334 833 266Q833 201 801 158Q770 113 719 88Q670 63 612 55Q553 43 500 43Q356 43 260 125Q164 205 152 350H74Z" />
<glyph unicode="t" glyph-name="t" horiz-adv-x="530" d="M502 1053H272V1380H195V1053H0V985H195V250Q192 162 217 111Q242 59 285 35Q330 10 385 4Q440 -4 500 0V68Q389 61 332 94Q272 127 272 250V985H502V1053Z" />
<glyph unicode="u" glyph-name="u" horiz-adv-x="1063" d="M948 1053H870V483Q870 287 770 168Q672 45 491 43Q385 43 326 84Q266 119 236 176Q209 233 201 289Q192 346 192 387V1053H115V401Q115 352 123 283Q131 211 164 141Q199 72 276 27Q352 -23 489 -25Q616
-23 721 43Q823 109 866 225H870V0H948V1053Z" />
<glyph unicode="v" glyph-name="v" horiz-adv-x="909" d="M913 1053H827L471 90H467L86 1053H-4L420 0H516L913 1053Z" />
<glyph unicode="w" glyph-name="w" horiz-adv-x="1442" d="M80 1053H-4L330 0H428L719 954H723L1012 0H1108L1446 1053H1360L1065 90H1061L772 1053H668L381 90H377L80 1053Z" />
<glyph unicode="x" glyph-name="x" horiz-adv-x="909" d="M-12 0H86L455 494L815 0H922L506 553L887 1053H786L455 612L125 1053H16L401 553L-12 0Z" />
<glyph unicode="y" glyph-name="y" horiz-adv-x="909" d="M428 6Q360 -199 319 -242Q281 -281 233 -295Q182 -309 100 -309V-377Q270 -381 346 -330Q379 -301 410 -246Q440 -190 469 -113L919 1053H831L471 92L80 1053H-12L428 6Z" />
<glyph unicode="z" glyph-name="z" horiz-adv-x="872" d="M113 68L821 979V1053H74V985H725L18 74V0H854V68H113Z" />
<glyph unicode="{" glyph-name="braceleft" horiz-adv-x="682" d="M600 1497H498Q412 1499 365 1448Q317 1395 317 1255V930Q317 868 313 811Q307 752 289 704Q274 659 246 631Q215 602 170 598V520Q258 512 289 416Q317 319 317 188V-135Q317 -270 365 -324Q412
-377 498 -377H600V-309H502Q442 -309 418 -260Q395 -213 395 -98V223Q395 328 379 391Q360 455 336 489Q311 526 289 543Q264 557 252 565Q264 571 289 588Q311 602 336 635Q360 672 379 735Q395 797 395 897V1218Q395 1333 418 1384Q442 1429 502 1429H600V1497Z"
/>
<glyph unicode="|" glyph-name="bar" horiz-adv-x="455" d="M188 -438H266V1610H188V-438Z" />
<glyph unicode="}" glyph-name="braceright" horiz-adv-x="682" d="M82 -377H184Q270 -377 317 -324Q365 -270 365 -135V188Q362 319 395 416Q410 463 440 491Q469 520 512 520V598Q424 606 395 704Q362 803 365 930V1255Q365 1395 317 1448Q270 1499 184 1497H82V1429H180Q244
1429 266 1384Q287 1333 287 1218V897Q287 797 307 735Q326 672 350 635Q377 602 399 588Q422 571 430 565Q422 557 399 543Q377 526 350 489Q326 455 307 391Q287 328 287 223V-98Q287 -213 266 -260Q244 -309 180 -309H82V-377Z" />
<glyph unicode="~" glyph-name="asciitilde" horiz-adv-x="1229" d="M1024 639Q999 588 948 539Q899 487 836 485Q772 485 721 514Q670 539 627 559Q561 590 510 608Q459 625 399 625Q309 625 252 580Q197 537 149 455L209 393Q229 446 276 496Q324 545 412 547Q455
547 510 526Q565 506 600 485Q729 410 833 408Q922 410 983 465Q1014 491 1038 522Q1063 551 1081 582L1024 639Z" />
<glyph unicode="&#x80;" glyph-name="Euro" horiz-adv-x="1139" d="M1042 1141Q1032 1175 1017 1202T985 1250T948 1287T911 1315Q854 1352 797 1361T690 1370Q669 1370 634 1368T558 1355T472 1321T385 1255Q351 1220 326 1175T282 1079T253 977T238 881H918L887
813H231Q226 759 227 710T231 616H811L780 549H240Q244 509 252 466T274 381T307 298T350 221Q392 159 438 124T531 70T621 48T698 43Q745 43 797 51T895 78Q935 93 980 123T1069 203V109Q1041 83 1007 60T928 20Q875 -1 811 -13T688 -25Q557 -25 455 27T285 176Q257
215 235 261T198 355T172 452T158 549H25L55 616H154Q143 721 154 813H25L55 881H158Q162 937 175 997T211 1116T269 1227T350 1321T445 1385T539 1420T623 1435T690 1438Q753 1438 820 1426T950 1376Q987 1353 1024 1316T1085 1219L1042 1141Z" />
</font>
</defs>
</svg>
