<?xml version="1.0" standalone="no"?>
<!DOCTYPE svg PUBLIC "-//W3C//DTD SVG 1.1//EN" "http://www.w3.org/Graphics/SVG/1.1/DTD/svg11.dtd">
<svg xmlns="http://www.w3.org/2000/svg">
<metadata>Generated by Fontastic.me</metadata>
<defs>
<font id="portobello-icones" horiz-adv-x="512">
<font-face font-family="portobello-icones" units-per-em="512" ascent="480" descent="-32"/>
<missing-glyph horiz-adv-x="512" />

<glyph unicode="&#97;" d="M250 141c0 0-2 1-3 1l-214 214c-1 2-1 4 0 5 2 2 4 2 5 0l212-212 212 213c2 1 4 1 5 0 2-1 2-4 0-5l-215-215c0 0-1-1-2-1z"/>
<glyph unicode="&#98;" d="M467 142c-1 0-2 0-3 1l-211 213-212-213c-1-1-3-1-5 0-1 1-1 3 0 5l214 215c2 1 4 1 5 0l215-215c1-2 1-4 0-5-1-1-1-1-3-1z"/>
<glyph unicode="&#99;" d="M168 38c-1 0-2 0-3 0-1 2-1 4 0 5l212 213-212 212c-1 1-1 3 0 5 1 1 4 1 5 0l215-215c1-1 1-3 0-5l-215-214c-1-1-1-1-2-1z"/>
<glyph unicode="&#100;" d="M355 39c-1 0-2 0-3 1l-214 215c-1 1-1 3 0 5l215 214c1 2 3 2 5 0 1-1 1-3 0-5l-212-212 212-211c1-2 1-4 0-5-1-1-2-2-3-2z"/>
<glyph unicode="&#101;" d="M257 3c-139 0-252 113-252 252 0 140 113 253 252 253 140 0 253-114 253-253 0-139-114-252-253-252z m0 498c-135 0-245-111-245-246 0-135 110-245 245-245 136 0 246 110 246 245 0 136-111 246-246 246z m78-406l-156 0c-2 0-3 2-3 4l0 39c0 2 1 3 3 3l20 0c9 0 15 7 15 16l0 78c0 9-6 16-15 16l-20 0c-2 0-3 2-3 4l0 39c0 2 1 4 3 4l117 0c2 0 4-2 4-4l0-136c0-9 7-16 16-16l19 0c2 0 3-2 3-4l0-38c0-3-1-5-3-5z m-152 7l149 0 0 32-16 0c-12 0-23 11-23 23l0 133-110 0 0-32 16 0c12 0 22-10 22-23l0-78c0-12-10-23-22-23l-16 0z m74 227c-23 0-42 20-42 43 0 23 20 42 42 42 23 0 43-20 43-42 0-23-19-43-43-43z m0 79c-19 0-35-16-35-36 0-19 16-35 35-35 20 0 36 16 36 35 0 20-16 36-36 36z"/>
<glyph unicode="&#102;" d="M257 2c-139 0-252 114-252 253 0 139 113 252 252 252 140 0 253-113 253-252 0-140-114-253-253-253z m0 498c-135 0-245-110-245-245 0-136 110-246 245-246 136 0 246 110 246 246 0 135-111 245-246 245z m-76-334c-1 0-2 0-3 1-2 1-2 3 0 5l151 151c2 1 4 1 5 0 2-1 2-3 0-5l-151-151c-1 0-2-1-2-1z m151 5c-1 0-2 0-3 1l-151 152c-2 1-2 3 0 5 1 1 3 1 5 0l151-152c2-1 2-3 0-5-1 0-1-1-2-1z"/>
<glyph unicode="&#103;" d="M258 1c-139 0-252 114-252 253 0 139 112 252 252 252 140 0 253-113 253-252 0-139-114-253-253-253z m0 499c-136 0-246-110-246-245 0-135 110-246 245-246 136 0 246 110 246 246 0 135-110 245-245 245z m-4-363c-2 0-4 1-4 3l0 215c0 2 2 3 4 3 2 0 3-1 3-3l0-215c1-2-1-3-3-3z m108 107l-215 0c-2 0-3 1-3 3 0 2 1 3 3 3l215 0c2 0 3-1 3-3 0-2-2-3-3-3z"/>
<glyph unicode="&#104;" d="M504 255l-494 0c-2 0-3 1-4 2 0 2 0 3 1 4l247 248c1 1 3 1 5 0l246-247c1 0 1-1 1-3 1-2 0-4-2-4z m-486 7l477 0-238 239z m401-264l-325 0c-2 0-3 1-3 3l0 258c0 2 1 3 3 3 2 0 4-1 4-3l0-254 319 0 0 254c0 2 1 3 3 3 2 0 3-1 3-3l0-258c0-1-2-3-4-3z m-119 3c-2 0-4 2-4 4l0 122-79 0 0-122c0-2-1-4-3-4-2 0-4 2-4 4l0 125c0 2 2 4 4 4l86 0c2 0 3-2 3-4l0-125c0-2-1-4-3-4z"/>
<glyph unicode="&#105;" d="M210 97c-111 0-202 90-202 201 0 111 90 202 202 202 110 0 201-90 201-202 0-111-90-201-201-201z m0 395c-108 0-195-86-195-194 0-107 87-194 195-194 107 0 194 87 194 194 0 108-87 194-194 194z m262-495c-1 0-2 1-3 1l-141 141c0 1-1 2 0 3 0 1 0 2 1 3 12 9 22 19 31 30 1 0 2 1 3 1 1 0 2 0 3-1l139-140c2-2 2-4 0-5l-31-31c-1-1-2-2-2-2z m-136 144l136-136 26 27-136 135c-8-9-17-17-26-26z"/>
<glyph unicode="&#106;" d="M508 356c-2 0-4 2-4 4l0 142-141 0c-3 0-4 1-4 3 0 2 1 4 4 4l145 0c2 0 3-2 3-4l0-145c0-2-1-4-3-4z m-177-32c-1 0-2 0-3 1-1 2-1 4 0 5l178 178c1 1 3 1 5 0 1-2 1-4 0-5l-178-178c-1-1-2-1-2-1z m-323 32c-2 0-3 2-3 4l0 145c0 2 1 4 3 4l146 0c2 0 3-2 3-4 0-2-1-3-3-3l-142 0 0-142c0-2-2-4-4-4z m177-32c0 0-2 0-2 1l-177 177c-2 2-2 4 0 5 1 2 3 2 4 0l178-177c1-1 1-3 0-5-1-1-2-1-3-1z m-31-325l-146 0c-2 0-3 2-3 4l0 145c0 2 1 4 3 4 2 0 4-2 4-4l0-142 142 0c2 0 3-1 3-3 0-2-2-4-3-4z m-146 0c0 0-2 0-2 1-2 1-2 3 0 5l177 177c1 1 3 1 5 0 1-1 1-3 0-5l-178-177c0-1-1-1-2-1z m500 0l-145 0c-3 0-4 2-4 4 0 2 1 3 4 3l141 0 0 142c0 2 2 4 4 4 2 0 3-2 3-4l0-145c0-2-1-4-3-4z m0 0c-1 0-2 0-3 1l-177 177c-1 2-1 4 0 5 1 1 3 1 5 0l177-177c1-2 1-4 0-5 0-1-1-1-2-1z"/>
<glyph unicode="&#107;" d="M503 2l-491 0c-2 0-4 1-4 3l0 137c0 2 2 3 4 3l82 0c2 0 3-1 3-3l0-51 321 0 0 51c0 2 1 3 3 3l82 0c2 0 4-1 4-3l0-137c0-1-3-3-4-3z m-488 7l485 0 0 130-75 0 0-52c0-2-2-3-4-3l-327 0c-3 0-4 1-4 3l0 52-75 0z m246 126c-1 0-2 0-3 1l-167 168c-1 0-2 3-1 3 1 1 2 2 4 2l120 0 0 164c0 2 1 3 3 3l85 0c2 0 3-1 3-3l0-164 124 0c1 0 2 0 3-2 1-1 0-3-1-3l-168-167c-1-1-2-2-2-2z m-160 168l160-160 159 159-119 0c-2 0-3 2-3 4l0 164-78 0 0-164c0-2-2-4-4-4l-115 0z"/>
<glyph unicode="&#108;" d="M502 1l-491 0c-2 0-3 2-3 4l0 136c0 2 1 4 3 4l82 0c2 0 3-2 3-4l0-51 321 0 0 51c0 2 1 4 4 4l81 0c2 0 4-2 4-4l0-136c0-2-2-4-4-4z m-488 7l485 0 0 130-75 0 0-51c0-2-1-4-3-4l-328 0c-2 0-4 2-4 4l0 51-75 0z m290 139l-85 0c-2 0-3 2-3 4l0 164-124 0c-1 0-3 0-3 2-1 1 0 2 0 3l168 168c2 1 4 1 5 0l168-167c1-1 1-3 1-4-1 0-2-2-4-2l-120 0 0-163c0-2-1-5-3-5z m-81 7l77 0 0 164c0 2 2 4 4 4l115 0-159 159-160-159 119 0c2 0 4-2 4-4z"/>
<glyph unicode="&#109;" d="M212 44c0 0 0 0-1 0-1 1-2 2-2 4l0 248-206 206c-1 2-1 3 0 4 0 2 2 3 3 3l503 0c2 0 3-1 4-3 0-1 0-2-1-3l-129-125-84-80 0-167c0-1-1-2-1-3l-83-83c-1-1-2-1-3-1z m-198 458l200-202c1-1 1-2 1-3l0-242 76 76 0 168c0 1 1 2 2 3l85 81 122 119z"/>
<glyph unicode="&#110;" d="M167 2l-161 0c-3 0-4 1-4 4l0 163c0 1 1 2 1 3l339 337c0 1 1 1 3 1 0 0 2-1 2-1l161-161c1-1 1-3 0-5l-338-340c0 0-1-1-3-1z m-158 7l157 0 334 337-155 156-336-335z m58 1c-1 0-2 0-3 1l-57 58c-1 2-1 4 0 5 1 1 3 1 5 0l57-57c2-2 2-4 0-5-1-2-1-2-2-2z m101-4c-1 0-2 0-3 1l-159 159c-1 1-1 4 0 5 2 1 4 1 5 0l159-159c2-2 2-4 0-5 0 0 0-1-2-1z"/>
<glyph unicode="&#111;" d="M304 7l-98 0c-3 0-4 1-4 4l0 52c-16 4-32 11-46 20l-37-37c-2-2-4-2-5 0l-70 69c-1 1-1 1-1 3 0 1 1 2 1 3l37 37c-8 15-14 30-19 46l-53 0c-2 0-3 1-3 4l0 98c0 2 1 3 3 3l53 0c4 16 11 33 19 47l-38 37c0 0 0 1 0 3 0 1 0 2 0 2l70 70c1 1 3 1 5 0l37-37c15 8 30 14 46 19l0 51c0 3 2 4 4 4l98 0c2 0 4-1 4-4l0-52c16-4 32-11 46-20l37 37c1 2 3 2 5 0l69-69c1-1 1-1 1-3 0-1 1-1 1-1l-37-37c8-15 14-31 19-47l53 0c2 0 3-1 3-3l0-98c0-3-1-4-3-4l-53 0c-4-16-11-32-19-46l37-37c1-2 1-4 0-5l-70-71c-1-2-3-2-5 0l-37 37c-15-8-30-15-46-20l0-52c-1-2-2-3-4-3z m-95 7l91 0 0 52c0 1 2 3 3 3 18 5 34 12 50 21 1 0 3 0 4-1l36-36 65 64-36 37c-2 1-2 2-1 4 9 15 16 32 20 50 1 1 2 2 4 2l52 0 0 92-52 0c-1 0-2 1-3 2-4 18-11 35-20 50-1 2-1 3 0 4l37 37-65 64-36-36c-2-1-3-1-5-1-15 9-32 16-49 21-2 0-3 2-3 3l0 52-91 0 0-52c0-1-2-3-3-3-18-5-34-12-50-21-1 0-3 0-4 1l-37 36-65-64 37-37c1-1 1-2 0-4-9-15-16-32-20-50-1-1-2-2-3-2l-52 0 0-92 52 0c1 0 2-1 3-2 4-18 11-35 20-50 1-2 1-3 0-4l-37-37 65-64 36 36c2 1 3 1 4 1 16-9 33-16 50-21 2 0 3-2 3-3z m46 152c-49 0-90 40-90 90 0 50 40 90 90 90 49 0 89-40 89-90 0-50-40-90-89-90z m0 173c-46 0-83-37-83-83 0-46 37-83 83-83 45 0 82 37 82 83 0 46-37 83-82 83z"/>
<glyph unicode="&#112;" d="M264 89c-61 0-109 49-109 109 0 60 48 109 109 109 60 0 108-49 108-109 0-59-48-109-108-109z m0 211c-56 0-102-46-102-102 0-56 46-102 102-102 55 0 101 46 101 102 0 56-46 102-101 102z m-1-174c-40 0-72 32-72 71 0 39 32 72 72 72 39 0 72-32 72-72 0-39-33-71-72-71z m0 136c-36 0-65-29-65-65 0-36 29-65 65-65 35 0 65 29 65 65 0 36-30 65-65 65z m238-217l-491 0c-2 0-4 1-4 3l0 294c0 2 2 3 4 3l118 0 61 61c1 1 1 1 3 1l134 0c1 0 2-1 3-1l60-61 113 0c2 0 3-1 3-3l0-294c-1-2-2-3-4-3z m-488 7l485 0 0 287-111 0c-1 0-2 0-3 0l-60 61-131 0-61-61c-1 0-2 0-3 0l-116 0z"/>
<glyph unicode="&#113;" d="M252 228c-70 0-128 59-128 132 0 73 58 131 128 131 71 0 129-59 129-132 0-73-58-131-129-131z m0 256c-67 0-121-56-121-125 0-69 54-124 121-124 68 0 122 56 122 125 0 69-55 124-122 124z m253-478l-499 0c0 0-2 0-2 1-1 1-1 2-1 3 18 130 122 221 253 221 131 0 235-91 252-222 0-1 0-2 0-3-1 0-2 0-3 0z m-494 7l490 0c-18 124-119 211-245 211-126 0-227-87-245-211z"/>
<glyph unicode="&#114;" d="M500 5l-450 0c-2 0-4 2-4 4 0 2 2 3 4 3l447 0 0 422-403 0 0-50c0-2-1-3-3-3-2 0-4 1-4 3l0 54c0 2 2 3 4 3l409 0c2 0 4-1 4-3l0-429c0-2-2-4-4-4z m-58 365l-286 0c-2 0-4 1-4 3 0 2 2 4 4 4l286 0c2 0 4-2 4-4 0-2-2-3-4-3z m0-41l-286 0c-2 0-4 1-4 3 0 3 2 4 4 4l286 0c2 0 4-1 4-4 0-2-2-3-4-3z m0-41l-286 0c-2 0-4 1-4 3 0 3 2 4 4 4l286 0c2 0 4-1 4-4 0-2-2-3-4-3z m0-205l-286 0c-2 0-4 2-4 4 0 2 2 3 4 3l286 0c2 0 4-1 4-3 0-2-2-4-4-4z m-163 164l-123 0c-2 0-4 1-4 4 0 2 2 3 4 3l123 0c2 0 3-1 3-3 0-3-2-4-3-4z m0-41l-123 0c-2 0-4 2-4 4 0 2 2 3 4 3l123 0c2 0 3-1 3-3 0-2-2-4-3-4z m0-41l-123 0c-2 0-4 2-4 4 0 2 2 3 4 3l123 0c2 0 3-1 3-3 0-2-2-4-3-4z m0-41l-123 0c-2 0-4 2-4 4 0 2 2 3 4 3l123 0c2 0 3-1 3-3 0-2-2-4-3-4z m-230-119c-24 0-44 20-44 44l0 332c0 2 1 3 3 3l82 0c2 0 4-1 4-3l0-332c0-24-20-44-45-44z m-37 372l0-329c0-20 17-36 38-36 20 0 37 16 37 36l0 329z m427-248l-122 0c-2 0-4 1-4 3l0 122c0 2 2 3 4 3l122 0c2 0 3-1 3-3l0-122c0-2-1-3-3-3z m-119 7l116 0 0 115-116 0z"/>
<glyph unicode="&#115;" d="M244 179l-142 0c-2 0-4 2-4 4 0 2 2 3 4 3l142 0c2 0 4-1 4-3 0-2-2-4-4-4z m196 0l-145 0c-2 0-3 2-3 4 0 2 1 3 3 3l142 0 0 316-301 0 0-45c0-2-2-3-4-3-2 0-3 1-3 3l0 48c0 2 1 4 3 4l308 0c2 0 4-2 4-4l0-322c0-2-2-4-4-4z m-40 267l-221 0c-3 0-4 2-4 4 0 2 1 3 4 3l221 0c2 0 3-1 3-3 0-2-1-4-3-4z m0-27l-221 0c-3 0-4 1-4 3 0 2 1 4 4 4l221 0c2 0 3-2 3-4 0-2-1-3-3-3z m0-28l-221 0c-3 0-4 1-4 3 0 2 1 4 4 4l221 0c2 0 3-2 3-4 0-2-1-3-3-3z m0-159l-221 0c-3 0-4 1-4 3 0 2 1 4 4 4l221 0c2 0 3-2 3-4 0-2-1-3-3-3z m-125 124l-96 0c-3 0-4 2-4 4 0 2 1 3 4 3l96 0c2 0 4-1 4-3 0-2-2-4-4-4z m0-27l-96 0c-3 0-4 1-4 3 0 2 1 4 4 4l96 0c2 0 4-2 4-4 0-2-2-3-4-3z m0-35l-96 0c-3 0-4 1-4 4 0 2 1 3 4 3l96 0c2 0 4-1 4-3 0-3-2-4-4-4z m0-28l-96 0c-3 0-4 2-4 4 0 2 1 3 4 3l96 0c2 0 4-1 4-3 0-2-2-4-4-4z m-173-87c-18 0-34 15-34 34l0 244c0 2 1 3 3 3l63 0c2 0 3-1 3-3l0-244c0-18-16-34-35-34z m-27 274l0-240c0-14 12-27 27-27 16 0 28 13 28 27l0 240z m319-180l-92 0c-2 0-3 1-3 3l0 91c0 2 1 4 3 4l92 0c2 0 4-2 4-4l0-92c0-1-2-2-4-2z m-88 7l85 0 0 84-85 0z m-35-279c0 0-2 0-3 0l-102 103c-1 0-1 3-1 3 1 1 2 2 4 2l72 0 0 99c0 2 1 4 3 4l51 0c3 0 4-2 4-4l0-98 74 0c1 0 3-1 3-2 1-1 0-3 0-4l-103-102c0-1-1-1-2-1z m-94 102l94-94 94 94-69 0c-2 0-3 1-3 4l0 98-45 0 0-98c0-3-1-4-3-4z"/>
<glyph unicode="&#116;" d="M226-5c0 0 0 0 0 0-132 7-236 117-236 251 0 139 114 252 256 252 137 0 250-113 250-252 0-108-74-207-179-241-1-1-2 0-3 1-1 0-1 1-1 2l0 164c0 2 1 3 3 3l62 0c1 8 5 35 7 62l-69 0c-2 0-3 2-3 4l0 61c0 8 9 11 27 11l42 0 0 70-59 0c-88 0-93-60-93-72l0-70c0-2-2-4-4-4l-38 0 0-62 38 0c2 0 4-1 4-3l0-175c0-1-1-1-2-2 0-1-1 0-2 0z m20 496c-137 0-249-110-249-245 0-130 99-236 226-245l0 167-38 0c-2 0-4 2-4 4l0 69c0 2 2 3 4 3l38 0 0 67c0 13 5 79 100 79l62 0c2 0 4-1 4-3l0-76c0-2-2-4-4-4l-45 0c-13 0-20-3-20-5l0-57 69 0c1 0 2-1 3-1 0-1 0-2 0-3-2-35-8-69-8-69 0-2-1-3-3-3l-61 0 0-156c100 35 169 130 169 233 0 135-109 245-243 245z"/>
<glyph unicode="&#117;" d="M509 69l-499 0c-2 0-3 2-3 4l0 373c0 2 1 4 3 4l191 0c0 0 2-1 2-1l62-62 244 0c2 0 4-1 4-3l0-311c-1-2-2-4-4-4z m-495 7l491 0 0 305-242 0c-1 0-2 0-3 0l-61 62-185 0z m249 305l-249 0c-2 0-4 1-4 3 0 2 2 3 4 3l249 0c2 0 3-1 3-3 0-2-1-3-3-3z"/>
<glyph unicode="&#118;" d="M227 154l-134 0c-2 0-4 2-4 4l0 349c0 2 2 3 4 3l257 0c2 0 4-1 4-3 0-3-2-4-4-4l-254 0 0-343 131 0c2 0 4-1 4-3 0-2-2-3-4-3z m193 0l-137 0c-2 0-3 2-3 4 0 2 1 3 3 3l133 0 0 277c0 2 2 3 4 3 2 0 3-1 3-3l0-280c0-2-1-4-3-4z m-4 283c-1 0-2 0-3 1l-64 64c-2 1-2 3 0 5 1 1 3 1 5 0l64-65c1-1 1-3 0-4-1-1-2-1-2-1z m4-3l-69 0c-2 0-4 2-4 4l0 69c0 2 2 3 4 3 2 0 3-1 3-3l0-67 66 0c2 0 3-1 3-3 0-2-1-3-3-3z m-163-433c-1 0-2 0-3 0l-111 112c0 0-1 2 0 3 0 1 2 2 3 2l79 0 0 108c0 2 1 3 3 3l55 0c2 0 4-1 4-3l0-107 80 0c2 0 3-1 4-2 0-2 0-3-1-4l-111-111c-1-1-2-1-2-1z m-103 111l103-103 103 103-77 0c-2 0-3 1-3 3l0 108-49 0 0-108c0-2-2-3-4-3z"/>
<glyph unicode="&#119;" d="M484 6l-296 0c0 0-2 1-3 1l-148 149c-8 8-12 18-12 28 0 10 3 20 11 28 8 7 17 11 27 11 10 0 19-4 27-11l82-82 0 336c0 21 16 38 37 38 21 0 39-17 39-38l0-185c0-1 1-3 2-4 2 0 4 1 5 3 6 11 21 20 36 20 20 0 39-15 41-34 0-1 1-2 3-3 2 0 3 1 4 2 7 13 20 21 35 21 19 0 35-14 38-33 0-2 1-3 2-4 3 0 4 1 5 2 7 14 19 22 33 22 21 0 36-17 36-39l0-223c0-3-2-5-4-5z m-294 7l291 0 0 219c0 18-13 32-30 32-12 0-21-6-27-17-2-4-7-6-11-6-5 1-8 5-8 9-2 17-15 29-31 29-12 0-23-7-29-17-2-5-6-7-11-6-5 1-8 4-8 9-2 15-17 28-34 28-12 0-26-7-30-17-3-4-7-6-12-5-5 1-9 5-9 10l0 185c0 17-14 31-31 31-18 0-31-13-31-31l0-345c0-1 0-3-2-3-1-1-3 0-3 0l-89 88c-6 6-14 9-21 9-9 0-16-3-22-9-7-6-9-14-9-22 0-8 3-17 9-23z"/>
<glyph unicode="&#120;" d="M251 2c-21 0-42 3-63 8-2 0-3 2-3 4 1 2 3 3 5 3 20-5 40-8 61-8 136 0 246 110 246 246 0 135-110 245-246 245-135 0-245-110-245-245 0-97 56-185 145-225 2 0 3-2 2-4-1-2-3-3-5-2-91 41-149 132-149 231 0 139 113 252 252 252 139 0 253-113 253-252 0-140-113-253-253-253z m-61 8c-1 0-2 0-2 1-1 1-2 3-1 5 7 13 12 26 16 37 2 11 18 69 18 70 0 2 1 2 2 3 2 0 3-1 4-2 8-15 32-30 59-30 79 0 135 71 135 172 0 36-16 72-43 99-31 27-71 43-116 43-74 0-179-48-179-156 0-47 19-82 50-94 1-1 3-2 5 0 2 0 3 3 3 4 1 2 2 6 3 10 1 4 2 8 3 11 1 5 1 6-3 11-12 14-18 31-18 52 0 82 66 126 129 126 67 0 110-39 110-101 0-79-36-139-84-139-15 0-28 6-36 17-8 10-11 23-8 36 3 12 7 25 11 36 6 21 12 40 12 54 0 17-8 35-31 35-26 0-46-28-46-63 0-23 8-39 8-39 1 0 1-1 0-2l-33-139c-2-11-4-24-4-39 0-2-2-3-4-3-2 0-3 1-3 3 0 16 2 29 5 40l32 138c-2 4-8 20-8 41 0 39 23 70 52 70 23 0 38-17 38-42 0-15-6-35-12-56-4-11-8-23-10-35-3-11-1-22 6-31 7-9 18-14 30-14 44 0 78 57 78 132 0 58-40 94-103 94-60 0-123-41-123-119 0-19 6-35 16-47 5-7 6-10 4-18 0-2-1-6-3-10 0-4-2-8-2-10-2-5-4-7-7-9-3-2-6-2-11 0-34 13-54 51-54 101 0 39 17 79 47 109 24 24 68 53 139 53 46 0 89-16 120-46 29-27 45-65 45-103 0-103-60-179-142-179-24 0-48 11-61 27-4-16-13-54-15-63-4-12-9-25-17-39 1-1-1-2-1-2z"/>
<glyph unicode="&#121;" d="M257 2c-139 0-252 114-252 253 0 139 113 252 252 252 140 0 253-113 253-252 0-140-114-253-253-253z m0 498c-135 0-245-110-245-245 0-136 110-246 245-246 136 0 246 110 246 246 0 135-111 245-246 245z m-10-388c-53 0-122 31-140 116 0 2 0 3 1 4 1 0 3 0 3 0 0 0 32-14 63-19-11 17-20 36-24 58 0 1 0 2 2 3 0 1 2 1 3 1 1 0 44-21 80-21 2 0 4 0 6 0 2 10 0 23-2 38-7 32 2 51 12 63 13 15 32 24 54 24 25 0 48-10 64-29 12 1 24 2 36 1 2 0 3-1 3-2 1-2 0-3 0-4 0 0-10-11-21-27 3-7 4-15 5-24 7-68-17-111-38-134-26-31-65-48-107-48z m-132 111c19-76 82-104 132-104 39 0 77 17 103 45 29 32 42 77 36 129-1 8-3 16-5 24-1 1 0 2 0 3 7 10 13 18 18 24-11 1-21 0-30-2-2 0-2 0-4 2-15 18-36 28-60 28-20 0-37-7-49-21-12-15-15-34-11-57 3-17 4-31 3-43 0-1-2-3-3-3-3 0-6 0-10 0-30 0-63 12-77 18 5-20 14-38 27-54 0-1 0-2 0-3-1-1-2-2-4-2-26 1-54 11-66 16z"/>
<glyph unicode="&#122;" d="M257 2c-139 0-252 114-252 253 0 139 113 252 252 252 140 0 253-113 253-252 0-140-114-253-253-253z m0 498c-135 0-245-110-245-245 0-136 110-246 245-246 136 0 246 110 246 246 0 135-111 245-246 245z m144-386l-61 0c-2 0-4 2-4 4l0 99c0 25-9 38-27 38-19 0-27-14-29-20-1-3-2-7-2-14l0-103c0-2-1-4-3-4l-62 0c-1 0-2 1-3 1 0 1 0 1 0 3 0 1 0 168 0 184 0 1 0 2 0 3 1 1 2 2 3 2l62 0c2 0 3-2 3-4l0-16c10 12 26 24 53 24 47 0 74-33 74-87l0-106c0-2-2-4-4-4z m-58 7l55 0 0 103c0 51-25 80-68 80-30 0-44-15-53-29 0-1-1-2-3-2-1 0-3 0-3 2-1 0-1 2 0 3l0 22-55 0c1-27 0-155 0-178l55 0 0 99c0 8 0 13 2 17 6 15 19 25 35 25 22 0 34-16 34-46l0-96z m-164-7l-63 0c-2 0-3 2-3 4l0 185c0 2 1 4 3 4l63 0c2 0 3-2 3-4l0-185c0-2-1-4-3-4z m-59 7l55 0 0 179-55 0z m27 203c-22 0-38 16-38 36 0 21 16 35 39 35 22 0 37-14 38-35 0-20-16-36-39-36z m1 65c-19 0-32-12-32-29 0-16 13-28 31-28l0 0c19 0 32 12 32 28 0 17-13 29-31 29z"/>
<glyph unicode="&#65;" d="M257 3c-139 0-253 114-253 253 0 139 114 253 253 253 139 0 252-114 252-253 0-139-113-253-252-253z m0 499c-136 0-246-110-246-246 0-136 110-246 246-246 135 0 245 110 245 246 0 136-110 246-245 246z m-2-370c-77 0-133 9-133 9-15 0-29 10-34 24 0 2-8 53-8 88 0 36 8 87 8 87 5 16 19 25 34 25 0 0 57 9 133 9 78 0 133-9 134-9 15 0 28-9 34-24 0-1 7-52 7-88 0-35-8-86-8-87-5-15-19-25-35-25 1 0-56-9-132-9z m-160 208c0 0-7-51-7-86 0-35 7-86 7-87 5-11 15-19 28-19 2 0 56-9 133-9 75 0 131 9 132 9 14 0 24 8 29 20 0 0 6 51 6 86 0 35-6 86-7 86-4 12-15 20-28 20-1 0-56 9-133 9-75 0-131-9-132-9-14-1-24-9-28-20z m137-149c-2 0-4 0-6 2-4 2-6 6-6 10l0 101c0 5 3 8 6 10 4 2 9 2 12 0l70-50c2-2 4-6 4-10 1-4 0-9-5-11l-68-50c-3-2-6-2-7-2z m0 118c-1 0-2 0-3-1-1-1-3-2-3-4l0-101c0-2 1-3 3-4 0 0 1 0 1 0 0-1 0-1 2-1 1 0 1 0 2 1l69 50c1 1 3 1 2 3 0 1-1 1-1 1 0 2-1 4-2 5l-69 50c0 1-1 1-1 1z"/>
<glyph unicode="&#66;" d="M257-5c-139 0-253 114-253 253 0 139 114 252 253 252 139 0 252-113 252-252 0-140-113-253-252-253z m0 498c-136 0-246-110-246-245 0-136 110-246 246-246 135 0 245 110 245 246 0 135-110 245-245 245z m-3-427c-35 0-68 9-97 28l-66-21c-1 0-2 0-3 1-1 1-2 2-1 3l22 63c-22 31-34 66-34 103 0 97 81 178 179 178 98 0 178-80 178-178 0-98-80-177-178-177z m-97 35c1 0 1 0 2-1 29-18 61-28 95-28 95 0 172 77 172 171 0 94-77 171-172 171-95 0-172-77-172-171 0-36 11-71 32-100 1-1 1-3 1-4l-20-58 61 19c0 1 1 1 1 1z m153 41c-6 0-18 1-51 14-32 13-63 40-88 76-1 1-1 2-1 2-6 8-21 31-21 55 0 24 12 38 18 43l0 1c7 7 14 8 16 8 2 0 4 0 6 0 1 0 3 0 4 0l1 0c0 0 0 0 1 0 6 0 9-3 13-10l5-13c4-11 10-23 10-25 1-2 4-7 1-12l-1-1c-1-3-2-5-4-8-1-1-2-2-3-3-2-2-4-4-6-6-2-3-3-4-1-6 3-7 13-22 28-35 16-14 29-20 36-23 2 0 3-1 4-1 1-1 3-2 4-2 1 0 1 0 3 3 3 4 13 15 16 19 2 3 5 5 9 5 2 0 4 0 7-1 5-2 35-17 35-17l3-1c4-2 6-3 8-6 2-4 1-15-3-27-5-14-28-26-37-26-2 0-3-1-4-1-2-1-5-2-8-2z m-127 192c-1 0-7-1-11-5l0-2c-5-5-16-16-16-38 0-23 15-45 20-51 0 0 0-1 1-2 24-36 54-62 85-74 24-10 40-15 48-15 3 0 4 1 6 1 2 1 3 1 5 1 8 0 28 11 32 22 4 11 4 19 3 21 0 1-2 2-5 3l-3 1c-6 3-30 15-35 17-1 1-3 1-4 1 0 0-1 0-3-2-4-5-14-17-17-20-4-4-8-5-15-2-1 1-2 1-3 2-7 2-23 9-39 24-15 13-26 30-29 36-4 7 0 12 2 14 2 2 4 4 5 6 1 1 2 2 3 3 2 2 3 4 4 7l1 1c1 2 1 3-1 6 0 1-5 11-10 24l-6 13c-2 6-5 6-5 6-1 0-1 0-2 0-2 0-4 0-6 0-1 2-3 2-5 2z"/>
<glyph unicode="&#67;" d="M327 134l-142 0c-26 0-47 22-47 48l0 141c0 26 21 48 47 48l142 0c26 0 47-22 47-48l0-141c0-26-21-48-47-48z m-142 230c-22 0-40-19-40-41l0-141c0-23 18-41 40-41l142 0c22 0 40 19 40 41l0 141c0 23-18 41-40 41z m71-165c-30 0-53 24-53 54 0 29 24 53 53 53 29 0 53-24 53-53 0-30-24-54-53-54z m0 100c-26 0-46-21-46-46 0-26 20-47 46-47 26 0 46 21 46 47 0 25-20 46-46 46z m115-19l-76 0c-2 0-3 1-3 3 0 2 1 3 3 3l76 0c2 0 3-1 3-3 0-2-1-3-3-3z m-154 0l-76 0c-2 0-3 1-3 3 0 2 1 3 3 3l76 0c2 0 3-1 3-3 0-2-2-3-3-3z m127 25l-31 0c-2 0-4 2-4 4l0 30c0 2 2 3 4 3l31 0c2 0 3-1 3-3l0-31c0-1-1-3-3-3z m-28 7l24 0 0 24-24 0z m-59-312c-139 0-253 113-253 253 0 139 114 252 253 252 139 0 252-113 252-252 0-140-113-253-252-253z m0 498c-136 0-246-110-246-245 0-136 110-246 246-246 135 0 245 110 245 246 0 135-110 245-245 245z"/>
<glyph unicode="&#68;" d="M257 217c-43 0-78 35-78 78 0 43 35 78 78 78 43 0 78-35 78-78 0-43-35-78-78-78z m0 150c-39 0-71-32-71-71 0-39 32-71 71-71 39 0 71 32 71 71 0 39-32 71-71 71z m0-368c-1 0-2 0-3 0-1 2-117 117-135 133-46 46-71 101-71 159 0 115 93 209 208 209 115 0 208-93 208-209 0-58-24-112-71-158-16-17-133-132-134-134-1 0-2 0-2 0z m0 494c-112 0-202-91-202-202 0-56 24-109 69-154 16-15 116-114 133-130 17 16 116 115 131 130 46 45 70 98 70 154 0 111-90 202-201 202z"/>
<glyph unicode="&#69;" d="M255 252c-37 0-67 30-67 67 0 38 30 68 67 68 37 0 68-30 68-68 0-37-30-67-68-67z m0 128c-33 0-60-28-60-61 0-34 27-61 60-61 34 0 61 27 61 61 0 33-27 61-61 61z m0-316c0 0-2 0-2 1-1 1-101 100-116 114-40 39-61 86-61 136 0 99 80 180 179 180 99 0 180-81 180-180 0-50-21-97-62-137-14-13-114-113-115-114-1 0-1 0-3 0z m0 425c-95 0-172-78-172-174 0-48 20-94 59-131 13-13 98-97 113-112 16 15 100 99 114 112 39 37 59 83 59 131 0 96-77 174-173 174z m249-482l-495 0c-1 0-3 1-4 2 0 1 0 3 1 3l113 116c0 1 1 2 3 2l73 0c2 0 3-2 3-4 0-2-1-3-3-3l-72 0-106-109 479 0-106 109-73 0c-2 0-3 1-3 3 0 2 1 4 3 4l74 0c1 0 2-1 3-2l113-116c0 0 1-2 0-3 0-1-2-2-3-2z"/>
<glyph unicode="&#70;" d="M440 430c-1 0-2 0-3 1l-68 68c-2 1-2 3 0 5 1 1 3 1 4 0l69-68c1-2 1-4 0-5-1-1-2-1-2-1z m2-3l-73 0c-2 0-4 2-4 4l0 73c0 2 2 3 4 3 2 0 3-1 3-3l0-71 70 0c2 0 4-1 4-3 0-2-2-3-4-3z m44-413l-457 0c-2 0-4 1-4 3l0 219c0 2 2 3 4 3l65 0 0 263c0 2 1 3 3 3l272 0c1 0 2 0 2-1l76-71c1-1 2-2 2-3l0-191 37 0c2 0 3-1 3-3l0-219c0-2-2-3-3-3z m-454 6l451 0 0 212-38 0c-2 0-3 1-3 4l0 193-74 69-268 0 0-262c0-3-1-4-3-4l-65 0z m253 424l-144 0c-2 0-3 1-3 3 0 2 1 4 3 4l144 0c2 0 3-2 3-4 0-2-2-3-3-3z m0-48l-144 0c-2 0-3 1-3 3 0 2 1 4 3 4l144 0c2 0 3-2 3-4 0-2-2-3-3-3z m109-48l-253 0c-2 0-3 2-3 4 0 2 1 3 3 3l253 0c2 0 3-1 3-3 0-2-2-4-3-4z m0-48l-253 0c-2 0-3 2-3 4 0 2 1 3 3 3l253 0c2 0 3-1 3-3 0-2-2-4-3-4z m-4-239l-81 0c-2 0-4 2-4 4l0 31-95 0 0-31c0-2-2-4-4-4l-68 0c-2 0-4 2-4 4l0 69c0 25 18 43 40 43l178 0c23 0 42-19 42-43l0-69c0-2-2-4-4-4z m-78 7l75 0 0 66c0 21-15 37-34 37l-179 0c-19 0-33-16-33-37l0-66 61 0 0 31c0 2 1 3 3 3l103 0c2 0 3-1 3-3l0-31z m130 164l-342 0c-2 0-3 1-3 4 0 2 1 3 3 3l342 0c2 0 3-1 3-3 0-3-2-4-3-4z"/>
<glyph unicode="&#71;" d="M503 67c-2 0-3 1-3 3l0 343-486 0 0-343c0-2-2-3-4-3-2 0-3 1-3 3l0 346c0 2 1 4 3 4l493 0c2 0 4-2 4-4l0-346c0-1-2-3-4-3z m-246 100c-1 0-2 0-3 0l-246 247c-2 1-2 3 0 4 1 2 3 2 4 0l245-244 244 244c1 2 3 2 5 0 1-1 1-3 0-4l-247-247c-1 0-2 0-2 0z m246-106l-493 0c-1 0-2 1-3 2-1 2 0 3 1 4l172 176c2 1 4 1 5 0 1-1 1-3 0-5l-167-170 477 0-167 170c-2 1-2 3 0 4 1 2 3 2 4 0l173-174c1-1 2-3 1-4 0-2-2-3-3-3z"/>
<glyph unicode="&#72;" d="M201 118c0 0 0 0-1 0-1 1-2 2-2 4l0 268c0 2 1 3 2 4 1 1 3 0 3-1l70-67 68-67c1-1 2-2 2-3 0-1-1-2-2-3l-138-134c0 0-1-1-2-1z m4 264l0-252 130 126-67 65z m48-375c-138 0-250 112-250 249 0 137 112 249 250 249 137 0 249-112 249-249 0-137-112-249-249-249z m0 491c-134 0-243-108-243-242 0-134 109-242 243-242 133 0 242 108 242 242 0 134-109 242-242 242z"/>
<glyph unicode="&#73;" d="M467 5l-421 0c-2 0-3 1-3 3l0 498c0 3 1 4 3 4l421 0c2 0 3-1 3-4l0-498c0-2-1-3-3-3z m-417 7l414 0 0 491-414 0z m354 135l-292 0c-2 0-3 1-3 3l0 292c0 2 1 4 3 4l292 0c2 0 4-2 4-4l0-292c0-2-2-3-4-3z m-288 7l285 0 0 285-285 0z m167 56c-1 0-2 1-3 1l-82 83-83-81c-2-1-4-1-5 0-1 1-1 4 0 5l85 83c1 1 4 1 5 0l82-82 58 58c2 2 4 2 5 0l31-29 30-30c2-1 2-4 0-5-1-1-3-1-5 0l-30 30-29 28-58-59c0-1 0-2-1-2z m41 106c-20 0-35 15-35 35 0 19 15 34 35 34 19 0 34-15 34-34 0-20-16-35-34-35z m0 62c-15 0-28-12-28-27 0-15 13-28 28-28 15 0 27 13 27 28 0 15-12 27-27 27z"/>
<glyph unicode="&#74;" d="M417 97l-331 0c-2 0-3 1-3 3l0 335c0 2 1 4 3 4l331 0c2 0 4-2 4-4l0-334c-1-2-2-4-4-4z m-327 7l324 0 0 328-324 0z m-4 202l-84 0c-2 0-3 1-3 3l0 84c0 2 1 3 3 3l84 0c2 0 3-1 3-3l0-84c1-2-1-3-3-3z m-80 7l77 0 0 77-77 0z m80-92l-84 0c-2 0-3 2-3 4l0 84c0 2 1 4 3 4l84 0c2 0 3-2 3-4l0-83c1-3-1-5-3-5z m-80 7l77 0 0 78-77 0z m80-90l-84 0c-2 0-3 1-3 3l0 84c0 2 1 3 3 3l84 0c2 0 3-1 3-3l0-84c1-2-1-3-3-3z m-80 7l77 0 0 76-77 0z m80-48l-84 0c-2 0-3 1-3 3l0 43c0 2 1 3 3 3l84 0c2 0 3-1 3-3l0-43c1-1-1-3-3-3z m-80 7l77 0 0 35-77 0z m80 286l-84 0c-2 0-3 1-3 3l0 42c0 2 1 4 3 4l84 0c2 0 3-2 3-4l0-42c1-2-1-3-3-3z m-80 6l77 0 0 36-77 0z m494-90l-83 0c-3 0-4 1-4 3l0 84c0 2 1 3 4 3l83 0c2 0 4-1 4-3l0-84c0-2-2-3-4-3z m-80 7l77 0 0 77-77 0z m80-92l-83 0c-3 0-4 2-4 4l0 84c0 2 1 4 4 4l83 0c2 0 4-2 4-4l0-83c0-3-2-5-4-5z m-80 7l77 0 0 78-77 0z m80-90l-83 0c-3 0-4 1-4 3l0 84c0 2 1 3 4 3l83 0c2 0 4-1 4-3l0-84c0-2-2-3-4-3z m-80 7l77 0 0 76-77 0z m80-48l-83 0c-3 0-4 1-4 3l0 43c0 2 1 3 4 3l83 0c2 0 4-1 4-3l0-43c0-1-2-3-4-3z m-80 7l77 0 0 35-77 0z m80 286l-83 0c-3 0-4 1-4 3l0 42c0 2 1 4 4 4l83 0c2 0 4-2 4-4l0-42c0-2-2-3-4-3z m-80 6l77 0 0 36-77 0z m-208-226c0 0 0 0-1 0-1 1-2 2-2 4l0 188c0 1 1 3 2 3 1 1 3 0 3 0l50-47 48-47c1-1 1-2 1-3 0-1 0-2-1-3l-98-94c0-1-1-1-2-1z m4 184l0-172 89 86-46 45z"/>
<glyph unicode="&#75;" d="M474 266c-2 0-4 2-4 4l0 31c0 113-91 205-204 205-112 0-204-92-204-205l0-31c0-2-1-4-3-4-2 0-4 2-4 4l0 31c0 117 95 212 211 212 117 0 211-95 211-212l0-31c0-2-1-4-3-4z m31-190l-64 0c-2 0-4 1-4 4l0 179c0 3 2 4 4 4l64 0c2 0 4-1 4-4l0-179c0-3-2-4-4-4z m-61 7l58 0 0 173-58 0z m-3-36l-40 0c-2 0-3 1-3 4l0 237c0 2 1 3 3 3l40 0c2 0 3-1 3-3l0-237c0-3-2-4-3-4z m-36 7l32 0 0 230-32 0z m-306 22l-64 0c-2 0-4 1-4 4l0 179c0 3 2 4 4 4l64 0c2 0 3-1 3-4l0-179c0-3-1-4-3-4z m-61 7l57 0 0 173-57 0z m100-36l-39 0c-2 0-4 1-4 4l0 237c0 2 2 3 4 3l39 0c2 0 4-1 4-3l0-237c0-3-2-4-4-4z m-36 7l33 0 0 230-33 0z"/>
<glyph unicode="&#76;" d="M251-2c-139 0-252 113-252 252 0 140 113 253 252 253 139 0 253-113 253-253 0-139-113-252-253-252z m0 498c-135 0-245-111-245-246 0-134 110-245 245-245 136 0 246 110 246 245 0 136-110 246-246 246z m2-420c-97 0-176 79-176 176 0 97 79 176 176 176 96 0 175-79 175-176 1-97-78-176-175-176z m0 345c-94 0-169-76-169-169 0-94 76-169 169-169 93 0 169 75 169 169 0 93-76 169-169 169z m-13-205c-1 0-1 0-1 0-2 1-2 2-2 3l0 157c0 2 1 3 3 3 2 0 4-1 4-3l0-149 64 63c1 1 3 1 5 0 1-1 1-4 0-5l-71-68c-1-1-1-1-2-1z"/>
<glyph unicode="&#77;" d="M227 144c-1 0-2 0-2 1l-92 90c-2 1-2 3 0 4 1 2 3 2 5 0l89-87 160 161c2 1 4 1 5 0 2-2 2-4 0-5l-163-163c-1-1-1-1-2-1z"/>
<glyph unicode="&#78;" d="M181 164c-1 0-2 0-3 1-2 1-2 3 0 5l151 151c2 1 4 1 5 0 2-1 2-3 0-5l-151-151c-1-1-2-1-2-1z m151 5c-1 0-2 0-3 1l-151 152c-2 1-2 3 0 5 1 1 3 1 5 0l151-152c2-1 2-3 0-5-1-1-1-1-2-1z"/>
<glyph unicode="&#79;" d="M246 22c-1 0-2 0-3 1l-105 105-103 104c-29 33-42 62-42 95 0 72 58 130 128 130 60 0 111-43 125-99 13 56 64 98 124 98 71 0 128-57 128-129 0-34-12-63-41-95l-103-105-106-104c0-1-2-1-2-1z m-125 428c-66 0-121-55-121-123 0-32 12-59 39-90l104-104 103-103 103 103 103 104c27 31 40 58 40 90 0 67-55 122-121 122-67 0-121-53-122-119 0-2-1-3-3-3-2 0-4 1-4 3-1 66-55 120-121 120z"/>
<glyph unicode="&#80;" d="M198 26l-92 0c-21 0-38 17-38 38l0 226c0 21 17 38 38 38l91 0c21 0 38-17 38-38l0-227c1-21-16-37-37-37z m-92 295c-17 0-31-14-31-31l0-227c0-17 14-31 31-31l91 0c17 0 31 14 31 31l0 227c0 17-14 31-31 31z m103-235l-112 0c-2 0-4 2-4 4l0 199c0 2 2 4 4 4l112 0c2 0 3-2 3-4l0-199c0-2-2-4-3-4z m-109 7l105 0 0 193-105 0z m62-42l-21 0c-2 0-3 1-3 3l0 21c0 2 1 3 3 3l21 0c2 0 3-1 3-3l0-21c0-2-1-3-3-3z m-17 6l13 0 0 14-13 0z m339 52l-252 0c-2 0-3 2-3 4 0 2 1 3 3 3l252 0c10 0 18 8 18 18l0 334c0 9-8 17-18 17l-449 0c-10 0-18-8-18-17l0-334c0-10 8-18 18-18l36 0c2 0 4-1 4-3 0-2-2-4-4-4l-36 0c-14 0-25 11-25 25l0 334c0 13 11 24 25 24l449 0c13 0 25-11 25-24l0-334c0-14-12-25-25-25z m-54 37l-198 0c-2 0-3 1-3 3 0 3 1 4 3 4l196 0 0 295-375 0 0-295 18 0c2 0 4-1 4-4 0-2-2-3-4-3l-22 0c-2 0-3 1-3 3l0 302c0 2 1 4 3 4l381 0c2 0 4-2 4-4l0-302c0-1-2-3-4-3z m43 140l-21 0c-2 0-3 2-3 4l0 21c0 2 1 3 3 3l21 0c2 0 4-1 4-3l0-21c0-1-2-4-4-4z m-17 7l14 0 0 14-14 0z"/>
<glyph unicode="&#81;" d="M247 224c-70 0-127 58-127 130 0 72 57 130 127 130 70 0 127-58 127-130 0-72-57-130-127-130z m0 253c-66 0-120-56-120-123 0-68 54-124 120-124 66 0 120 56 120 124 0 67-54 123-120 123z m249-475l-492 0c-1 0-2 1-3 1 0 1 0 3 0 3 18 129 120 220 249 220 130 0 232-90 250-220 0 0 0-2-1-3-1 0-2-1-3-1z m-488 7l485 0c-19 123-118 209-243 209-124 0-223-85-242-209z"/>
<glyph unicode="&#82;" d="M262 54c-1 0-3 0-3 1l-105 106-103 104c-29 32-42 62-42 95 0 71 57 128 128 128 60 0 111-42 125-98 13 56 64 98 124 98 71 0 128-58 128-129 0-34-12-63-41-95l-104-105-105-104c0 0-2-1-2-1z m-125 428c-66 0-121-55-121-122 0-32 12-60 39-90l103-105 104-103 103 103 103 104c27 31 40 58 40 90 0 67-55 122-121 122-66 0-121-53-121-119 0-2-2-4-4-4-2 0-3 2-3 4-2 66-56 120-122 120z"/>
<glyph unicode="&#83;" d="M495 1l-487 0c-2 0-4 2-4 4l0 491c0 2 2 4 4 4l487 0c2 0 3-2 3-4l0-491c0-2-1-4-3-4z m-484 7l480 0 0 485-480 0z m410 72l-337 0c-2 0-4 2-4 4l0 338c0 2 2 4 4 4l338 0c2 0 4-2 4-4l0-338c-1-2-3-4-5-4z m-334 7l332 0 0 332-332 0z m194 67c-1 0-2 1-3 1l-95 96-97-94c-1-1-3-1-4 0-2 1-2 4 0 5l99 96c1 1 3 1 4 0l96-96 68 68c1 2 3 2 5 0l35-34 35-34c2-1 2-4 0-5-1-1-3-1-5 0l-35 34-33 32-67-68c-1-1-2-1-3-1z m48 122c-22 0-40 18-40 40 0 21 18 39 40 39 21 0 39-18 39-39 0-22-18-40-39-40z m0 72c-18 0-33-15-33-32 0-18 15-33 33-33 18 0 32 15 32 33 0 17-14 32-32 32z"/>
<glyph unicode="&#84;" d="M137 179c-1-1-1-1-3-1 0 0-2 0-3 1l-111 79c-1 1-1 1-1 1 0 1 0 2 1 3l112 79c2 1 4 1 5 0l112-79c1-1 1-2 1-3 0 0 0-1-1-1z m-109 80l107-76 107 76-107 77-107-77m240-173c-1 0-2 0-3 0-1 0-2 0-3 0l-111 79c-1 1-1 2-1 2 0 1 1 2 1 2l112 79c1 1 3 1 5 0l112-79c1-1 1-2 1-2 0 0-1-1-1-2z m-110 81l108-76 107 76-107 77-108-77m243 13c-1-1-2-1-3-1-1 0-2 0-3 1l-111 79c-1 1-1 2-1 2 0 1 1 1 1 2l112 79c1 1 3 1 5 0l112-79c0-1 0-1 0-2 0-1 0-2 0-2z m-110 81l108-76 107 76-107 76-108-76m-21 12c-1-1-2-1-3-1-1 0-2 0-3 1l-111 79c-1 0-1 1-1 2 0 0 1 1 1 1l112 80c1 0 3 0 5 0l112-80c1-1 1-1 1-1 0-1-1-2-1-2z m-109 81l107-77 107 77-107 76-107-76"/>
<glyph unicode="&#85;" d="M257 7c-1 0-2 0-2 1l-205 144c-1 1-2 2-2 3 0 1 1 2 2 3l204 144c1 1 3 1 4 0l205-144c1-1 1-2 1-3 0-1 0-2-1-3l-204-144c-1 0-2-1-2-1z m-199 148l199-140 198 140-198 140z m403-3c-2 0-4 1-4 3l0 202-200 143-202-143 0-202c0-2-1-3-3-3-2 0-4 2-4 3l0 204c0 1 1 2 2 3l205 144c1 1 2 1 4 0l205-144c0-1 1-2 1-3l0-204c-1-2-2-3-4-3z m-207 144c-2 0-4 2-4 4l0 200c0 2 2 4 4 4 2 0 3-2 3-4l0-200c0-2-2-4-3-4z m110-218c-1 0-1 0-2 1l-204 144c-2 2-2 4-1 5 1 2 4 2 5 1l204-145c1-1 2-3 1-4-1-1-2-2-3-2z m35 118c-3 0-4 1-4 3l0 114-70 50 0-108c0-2-1-3-3-3-2 0-4 2-4 3l0 114c0 2 1 3 2 3 2 1 3 1 4 0l77-54c0-1 1-2 1-3l0-116c0-1-1-3-3-3z m-250-113c-2 0-2 1-3 1-1 2-1 4 1 5l204 145c1 1 3 1 5-1 1-1 0-3-1-5l-204-144c-1 0-2-1-2-1z m-34 174c-1 0-2 0-2 0-1 1-2 2-2 3l0 55c0 1 1 2 2 3l77 54c1 1 2 1 3 0 1 0 2-2 2-3l0-54c0-2-1-2-1-3l-77-55c-1 0-1 0-2 0z m3 56l0-47 70 50 0 47z m39-31c-2 0-3 2-3 4l0 55c0 2 1 4 3 4 2 0 4-2 4-4l0-55c0-2-3-4-4-4z"/>
<glyph unicode="&#86;" d="M459 37l-405 0c-2 0-3 1-3 3l0 434c0 2 1 3 3 3l320 0c2 0 3-1 3-3 0-2-2-4-3-4l-317 0 0-426 400 0 0 343c0 3 1 4 3 4 2 0 4-1 4-4l0-347c-1-1-3-3-5-3z m-4 350c-1 0-3 0-3 1l-80 80c-1 2-1 4 0 5 2 2 4 2 5 0l80-79c1-2 1-4 0-5 0-1-1-2-2-2z m4-3l-85 0c-2 0-4 1-4 3l0 87c0 2 2 3 4 3 2 0 3-1 3-3l0-83 83 0c2 0 4-1 4-4 0-2-3-3-5-3z m-364-78l13 0 0-229-13 0z m32 0l20 0 0-229-20 0z m30 0l10 0 0-229-10 0z m98 0l13 0 0-229-13 0z m32 0l20 0 0-229-20 0z m30 0l10 0 0-229-10 0z m91 0l10 0 0-229-10 0z m-173 0l10 0 0-229-10 0z m-44 0l19 0 0-229-19 0z m156 0l39 0 0-229-39 0z"/>
<glyph unicode="&#87;" d="M404 26c-44 0-79 36-79 79 0 7 1 14 3 21l-106 67c-19-21-46-34-74-34-54 0-98 44-98 98 0 54 44 99 98 99 26 0 51-11 70-29l110 69c-2 7-3 14-3 21 0 44 35 79 79 79 44 0 79-35 79-79 0-43-35-79-79-79-17 0-32 5-46 16l-114-74c2-8 2-16 2-23 0-5 0-10-1-16l113-71c14 9 29 15 46 15 44 0 79-36 79-79 1-44-35-80-79-80z m-183 175c1 0 2 0 2-1l111-71c2 0 2-2 2-4-3-7-4-14-4-21 0-39 33-71 72-71 40 0 72 32 72 71 0 40-32 72-72 72-16 0-31-4-44-15-1 0-2 0-4 0l-117 76c-1 0-2 2-1 3 1 6 1 12 1 17 0 8 0 16-2 23-1 2 0 3 1 4l118 75c2 1 3 1 4 0 13-10 28-15 44-15 40 0 72 32 72 72 0 39-32 72-72 72-39 0-72-32-72-71 0-7 1-14 4-21 0-2 0-3-2-4l-115-74c-1 0-3 0-4 1-17 19-41 29-66 29-51 0-92-41-92-91 0-51 41-92 92-92 27 0 53 13 70 34 0 1 2 2 2 2z"/>
<glyph unicode="&#88;" d="M251-2c-139 0-252 113-252 252 0 140 113 253 252 253 139 0 253-113 253-253 0-139-113-252-253-252z m0 498c-135 0-245-111-245-246 0-134 110-245 245-245 136 0 246 110 246 245 0 136-110 246-246 246z m21-370c-17 0-31 14-31 31 0 48-39 86-86 86-17 0-31 14-31 31 0 17 14 31 31 31 82 0 148-66 148-148 0-17-14-31-31-31z m-118 172c-13 0-24-11-24-24 0-13 11-24 24-24 51 0 93-42 93-93 0-13 11-24 24-24 13 0 24 11 24 24 1 78-63 141-141 141z m204-173c-17 0-31 13-31 31 0 96-78 174-174 174-17 0-31 14-31 31 0 17 14 31 31 31 130 0 237-106 237-236 0-18-14-31-32-31z m-204 260c-14 0-25-11-25-24 0-13 11-24 25-24 99 0 181-81 181-181 0-13 11-25 24-25 13 0 24 12 24 25 0 126-103 229-229 229z m11-260c-23 0-42 18-42 42 0 23 19 42 42 42 24 0 43-19 43-42 0-24-19-42-43-42z m0 77c-19 0-35-16-35-35 0-20 16-36 35-36 20 0 36 16 36 36 0 19-16 35-36 35z"/>
<glyph unicode="&#89;" d="M256 0c-141 0-256 115-256 256 0 141 115 256 256 256 141 0 256-115 256-256 0-141-115-256-256-256z m0 505c-137 0-249-112-249-249 0-137 112-249 249-249 137 0 249 112 249 249 0 137-112 249-249 249z m-62-211c0-10-8-18-18-18-10 0-18 8-18 18 0 10 8 18 18 18 10 0 18-8 18-18z m148 0c0-10-9-18-19-18-10 0-18 8-18 18 0 10 8 18 18 18 10 0 19-8 19-18z m-86-175c-40 0-78 16-107 44-1 2-1 4 0 5 2 2 4 2 5 0 28-27 63-42 101-42 39 0 75 15 101 42 2 2 4 2 5 0 2-1 2-3 0-5-27-28-65-44-105-44z"/>
<glyph unicode="&#90;" d="M256 0c-141 0-256 115-256 256 0 141 115 256 256 256 141 0 256-115 256-256 0-141-115-256-256-256z m0 505c-137 0-249-112-249-249 0-137 112-249 249-249 137 0 249 112 249 249 0 137-112 249-249 249z m-62-211c0-10-8-18-18-18-10 0-18 8-18 18 0 10 8 18 18 18 10 0 18-8 18-18z m148 0c0-10-9-18-19-18-10 0-18 8-18 18 0 10 8 18 18 18 10 0 19-8 19-18z m18-167c-1 0-2 0-3 1-56 56-147 56-203 0-1-2-3-2-5 0-1 1-1 3 0 5 59 58 155 58 213 0 1-2 1-4 0-5 0 0-1-1-2-1z"/>
<glyph unicode="&#48;" d="M256 0c-141 0-256 115-256 256 0 141 115 256 256 256 141 0 256-115 256-256 0-141-115-256-256-256z m0 505c-137 0-249-112-249-249 0-137 112-249 249-249 137 0 249 112 249 249 0 137-112 249-249 249z m-15-348c0 11 1 21 3 30 2 8 5 16 8 23 3 7 7 12 12 18 4 6 9 10 14 15 5 5 10 10 15 15 5 5 10 11 14 16 4 6 7 12 9 18 2 7 4 14 4 21 0 10-2 19-6 26-3 8-9 14-15 19-7 5-14 8-22 10-8 2-17 4-25 4-13 0-24-2-33-7-10-4-18-9-24-17-6-8-11-17-14-27-4-10-5-22-5-33l-16 0c0 14 2 28 6 40 4 13 10 23 18 32 8 9 18 15 30 20 12 5 25 7 40 7 11 0 22-1 31-5 10-3 19-7 27-14 8-6 13-14 18-24 5-9 7-20 7-33 0-9-2-16-4-23-2-7-5-14-8-19-4-6-8-11-12-16-4-5-9-9-14-14-5-4-10-8-15-13-5-5-9-11-13-17-4-6-7-14-10-23-3-9-4-20-4-32l-16 0z m-2-33l22 0 0-26-22 0z"/>
<glyph unicode="&#49;" d="M444 429c-1 0-2 0-3 1l-70 70c-1 1-1 4 0 5 1 1 4 1 5 0l70-70c1-2 1-4 0-5 0 0-1-1-2-1z m1-3l-73 0c-2 0-4 2-4 4l0 76c0 2 2 3 4 3 2 0 3-2 3-3l0-73 70 0c2 0 3-1 3-3 0-2-1-4-3-4z m49-420l-469 0c-3 0-4 1-4 3l0 218c0 2 1 3 4 3l66 0 0 276c0 2 2 4 4 4l277 0c0 0 2-1 3-2l73-76c1-1 1-1 1-2l0-201 45 0c3 0 4-1 4-3l0-218c0-1-1-2-4-2z m-466 7l463 0 0 210-46 0c-2 0-3 1-3 4l0 202-72 75-272 0 0-277c0-3-1-4-3-4l-67 0z m421 210l-358 0c-2 0-3 1-3 4 0 2 1 3 3 3l358 0c2 0 3-1 3-3 0-3-1-4-3-4z"/>
<glyph unicode="&#50;" d="M437 242l-368 0c-1 0-3 0-4 2 0 1 0 3 1 3l184 184c1 1 3 1 5 0l183-184c1 0 1-1 1-2 1-2-1-3-2-3z m-359 7l350 0-176 175z m295-199l-241 0c-3 0-4 2-4 4l0 191c0 2 1 4 4 4 2 0 3-2 3-4l0-187 235 0 0 187c0 2 1 4 3 4 2 0 4-2 4-4l0-191c0-2-2-4-4-4z m-89 3c-2 0-3 1-3 3l0 90-57 0 0-90c0-2-1-3-4-3-2 0-3 1-3 3l0 93c0 2 1 4 3 4l64 0c3 0 4-2 4-4l0-93c0-2-1-3-4-3z"/>
<glyph unicode="&#51;" d="M439 253l-367 0c-2 0-3 1-4 2 0 2 0 3 1 4l184 184c2 1 4 1 5 0l183-183c1-1 1-2 1-3 1-2 0-4-3-4z m-359 7l351 0-176 175z m297-198l-243 0c-2 0-3 1-3 3l0 192c0 2 1 3 3 3 3 0 4-1 4-3l0-188 235 0 0 188c0 2 2 3 4 3 2 0 3-1 3-3l0-192c0-2-2-3-3-3z m-90 2c-2 0-3 1-3 4l0 89-57 0 0-89c0-3-2-4-4-4-2 0-3 1-3 4l0 93c0 2 1 3 3 3l64 0c2 0 4-1 4-3l0-93c0-2-2-4-4-4z"/>
<glyph unicode="&#52;" d="M319 13l-75 0 0 119 75 0z m-68 7l60 0 0 104-60 0z m0-7l-75 0 0 119 74 0 0-119z m-68 7l60 0 0 104-60 0z m200-11l-264 0 0 156-21 0 0 57 21 0 0 249 264 0 0-249 14 0 0-57-14 0z m-256 7l248 0 0 156 15 0 0 43-15 0 0 249-248 0 0-249-22 0 0-43 22 0z m72 266l-39 0 0 43 39 0z m-32 7l25 0 0 29-25 0z m102-7l-39 0 0 43 39 0z m-32 7l25 0 0 29-25 0z m97-7l-39 0 0 43 39 0z m-32 7l25 0 0 29-25 0z m-103 96l-39 0 0 43 39 0z m-32 8l25 0 0 28-25 0z m102-8l-39 0 0 43 39 0z m-32 8l25 0 0 28-25 0z m97-8l-39 0 0 43 39 0z m-32 8l25 0 0 28-25 0z m-183-171l256 0 0-7-256 0z m0-50l264 0 0-7-264 0z"/>
<glyph unicode="&#53;" d="M233 277l-122 0c-2 0-4 2-4 4l0 123c0 2 2 3 4 3l122 0c2 0 4-1 4-3l0-122c0-3-2-5-4-5z m-119 7l116 0 0 116-116 0z m286-7l-123 0c-3 0-4 2-4 4l0 123c0 2 1 3 4 3l122 0c2 0 3-1 3-3l0-122c1-3-1-5-2-5z m-120 7l115 0 0 116-115 0z m-47-173l-122 0c-2 0-4 1-4 3l0 124c0 2 2 3 4 3l122 0c2 0 4-1 4-3l0-123c0-3-2-4-4-4z m-119 7l116 0 0 116-116 0z m286-7l-123 0c-3 0-4 1-4 3l0 124c0 2 1 3 4 3l122 0c2 0 3-1 3-3l0-123c1-3-1-4-2-4z m-120 7l115 0 0 116-115 0z"/>
<glyph unicode="&#54;" d="M361 147l-229 0c-2 0-3 2-3 4l0 229c0 2 1 3 3 3l229 0c2 0 4-1 4-3l0-229c0-2-2-4-4-4z m-225 7l222 0 0 222-222 0z m232-60l-234 0c-2 0-4 1-4 3 0 3 2 4 4 4l234 0c2 0 4-1 4-4 0-2-2-3-4-3z"/>
<glyph unicode="&#55;" d="M219 44l-154 0c-22 0-39 18-39 39l0 342c0 22 17 39 39 39l153 0c22 0 39-17 39-39l0-343c1-21-17-38-38-38z m-154 413c-18 0-32-14-32-32l0-343c0-17 14-32 32-32l153 0c18 0 32 15 32 32l0 343c0 18-14 32-32 32z m156-328l-156 0c-2 0-4 1-4 3l0 280c0 2 2 3 4 3l156 0c2 0 4-1 4-3l0-279c0-2-2-4-4-4z m-153 7l150 0 0 272-150 0z m88-57l-29 0c-2 0-3 1-3 3l0 30c0 2 1 3 3 3l29 0c3 0 4-1 4-3l0-30c0-2-1-3-4-3z m-25 7l22 0 0 22-22 0z m298-8c-1 0-2 0-3 0l-58 58c-1 1-1 3 0 5 2 1 4 1 5 0l55-55 55 55c1 1 3 1 5 0 1-2 1-4 0-5l-57-58c-1 0-1 0-2 0z m1 11c-2 0-3 1-3 3l0 52c0 94-78 171-172 171-3 0-4 1-4 4 0 2 1 3 4 3 98-1 179-80 179-178l0-52c0-2-2-3-4-3z"/>
<glyph unicode="&#56;" d="M514 39l-476 0 0 303 7 0 0-296 462 0 0 463-462 0 0-129-7 0 0 135 476 0z m-444 272l5-5-33-34-5 5z m201 203l5-5-131-131-5 5z m-180-246c-1 0-2 2-3 3-9 43-43 77-86 86-1 0-3 2-3 3 0 2 2 3 3 4 43 10 76 43 86 86 1 2 2 3 3 3 2 0 3-1 4-3 9-43 43-76 86-86 1 0 2-2 2-4 0-1-1-2-2-3-43-9-77-43-86-86-1-1-2-3-4-3z m-76 92c36-11 64-40 76-75 11 35 40 64 75 75-35 12-64 41-75 76-11-35-40-64-76-76z m76-92c-1 0-2 2-3 3-9 43-43 77-86 86-1 0-3 2-3 3 0 2 2 3 3 4 43 10 76 43 86 86 1 2 2 3 3 3 2 0 3-1 4-3 9-43 43-76 86-86 1 0 2-2 2-4 0-1-1-2-2-3-43-9-77-43-86-86-1-1-2-3-4-3z m-76 92c36-11 64-40 76-75 11 35 40 64 75 75-35 12-64 41-75 76-11-35-40-64-76-76z m129-206c-1 0-3 1-4 2-5 25-24 45-49 50-2 0-3 2-3 4 0 1 1 2 3 3 25 6 44 25 49 50 1 1 3 3 4 3 1 0 3-2 3-3 6-25 25-44 50-50 2 0 3-2 3-3 0-2-1-3-3-4-25-5-44-25-50-50 0-1-2-2-3-2z m-41 56c19-8 33-22 41-41 8 19 22 33 41 41-19 7-33 22-41 40-8-18-22-33-41-40z m41-56c-1 0-3 1-4 2-5 25-24 45-49 50-2 0-3 2-3 4 0 1 1 2 3 3 25 6 44 25 49 50 1 1 3 3 4 3 1 0 3-2 3-3 6-25 25-44 50-50 2 0 3-2 3-3 0-2-1-3-3-4-25-5-44-25-50-50 0-1-2-2-3-2z m-41 56c19-8 33-22 41-41 8 19 22 33 41 41-19 7-33 22-41 40-8-18-22-33-41-40z"/>
<glyph unicode="&#57;" d="M517 40l-475 0 0 475 475 0z m-469 7l462 0 0 462-462 0z"/>
<glyph unicode="&#33;" d="M40 410l7 0 0-155-7 0z m469-66l3 0 0-154-3 0z m-185-298l155 0 0-7-155 0z m-215 466l155 0 0-3-155 0z m52-466l119 0 0-7-119 0z m356-10l-477 0 0 476 476 0 0-476z m-470 7l462 0 0 462-462 0z m470-4l-477 0 0 476 476 0 0-476z m-470 7l462 0 0 463-462 0z m-38 209c-1 0-2 0-3 1-1 1-1 3 0 5l147 147c1 2 3 2 5 0 1-1 1-3 0-5l-147-146c-1-1-1-2-2-2z m365-65c-1 0-2 0-3 1-2 1-2 3 0 5l147 146c1 2 3 2 4 0 2-1 2-3 0-4l-146-147c0-1-1-1-2-1z m-45-267c-1 0-2 0-3 1-2 1-2 3 0 5l147 146c1 2 3 2 4 0 2-1 2-3 0-4l-146-147c-1-1-2-1-2-1z m-216 502c0 0-2 0-2 1-2 1-2 3 0 4l146 148c2 1 4 1 5 0 2-2 2-4 0-5l-146-147c-1 0-2-1-3-1z m52-391c0 0-2 0-2 1-2 1-2 3 0 4l111 112c1 1 3 1 5 0 1-2 1-4 0-5l-111-111c-1-1-2-1-3-1z"/>
<glyph unicode="&#34;" d="M42 410l6 0 0-154-6 0z m468-65l2 0 0-155-2 0z m0-170l2 0 0-128-2 0z m-138-128l140 0 0-7-140 0z m-46 0l155 0 0-7-155 0z m-284 103l6 0 0-103-6 0z m0-103l75 0 0-7-75 0z m233 465l171 0 0-3-171 0z m-163 0l155 0 0-3-155 0z m-70-68l6 0 0-240-6 0z m468-13l2 0 0-241-2 0z m-456-384l118 0 0-7-118 0z m110 0l118 0 0-7-118 0z m-122 363l6 0 0-154-6 0z m468-65l2 0 0-155-2 0z m-184-298l155 0 0-7-155 0z m-214 465l155 0 0-3-155 0z m52-465l118 0 0-7-118 0z m353-7l-475 0 0 475 475 0z m-469 7l462 0 0 462-462 0z m469-7l-475 0 0 475 475 0z m-469 7l462 0 0 462-462 0z m-36 209c0 0-2 0-2 1-2 1-2 3 0 5l146 146c2 2 4 2 5 0 2-1 2-3 0-5l-146-146c-1-1-2-1-3-1z m364-65c0 0-2 0-2 1-2 1-2 3 0 4l146 147c2 2 4 2 5 0 2-1 2-3 0-5l-146-146c-1-1-1-1-3-1z m0-170c0 0-2 0-2 1-2 2-2 4 0 5l146 147c2 1 4 1 5 0 2-2 2-4 0-5l-146-146c-1-1-1-2-3-2z m-45-97c-1 0-2 0-3 1-1 1-1 3 0 4l147 147c1 1 3 1 4 0 2-1 2-3 0-5l-146-146c0 0-1-1-2-1z m-364 72c-1 0-2 0-3 1-1 1-1 3 0 4l147 147c1 1 3 1 5 0 1-1 1-3 0-5l-146-146c-1-1-3-1-3-1z m312 364c-1 0-2 0-3 0-1 2-1 4 0 5l164 164c1 2 4 2 5 0 1-1 1-3 0-5l-163-163c-1-1-2-1-3-1z m-163 65c0 0-2 0-3 1-1 1-1 3 0 4l147 147c2 1 4 1 5 0 1-1 1-3 0-5l-146-146c-1 0-2-1-3-1z m0 52c0 0-2 0-3 1-1 1-1 4 0 5l147 147c2 1 4 1 5 0 1-2 1-4 0-5l-146-147c-1-1-2-1-3-1z m-104-273c0 0-2 0-2 1-2 1-2 3 0 5l232 232c2 2 4 2 5 0 1-1 1-3 0-5l-232-232c-1-1-2-1-3-1z m312-13c0 0-2 0-2 1-2 1-2 3 0 4l232 233c2 1 4 1 5 0 1-1 1-3 0-5l-232-232c0-1-2-1-3-1z m-266-156c-1 0-2 0-3 0-1 2-1 4 0 5l111 111c1 1 4 1 5 0 1-2 1-4 0-5l-111-111c0 0-1 0-2 0z m110 0c-1 0-2 0-3 0-1 2-1 4 0 5l111 111c1 1 4 1 5 0 1-2 1-4 0-5l-111-111c0 0 0 0-2 0z m349 5l-475 0 0 475 475 0z m-469 7l462 0 0 462-462 0z m-36 209c0 0-2 0-2 1-2 1-2 3 0 5l146 146c2 2 4 2 5 0 2-1 2-3 0-5l-146-146c-1-1-2-1-3-1z m364-65c0 0-2 0-2 1-2 1-2 3 0 4l146 147c2 2 4 2 5 0 2-1 2-3 0-5l-146-146c-1-1-1-1-3-1z m-45-267c-1 0-2 0-3 1-1 1-1 3 0 4l147 147c1 1 3 1 4 0 2-1 2-3 0-5l-146-146c0 0-1-1-2-1z m-215 501c0 0-2 0-3 1-1 1-1 3 0 4l147 147c2 1 4 1 5 0 1-1 1-3 0-5l-146-146c-1 0-2-1-3-1z m52-390c-1 0-2 0-3 0-1 2-1 4 0 5l111 111c1 1 4 1 5 0 1-2 1-4 0-5l-111-111c0 0 0 0-2 0z"/>
<glyph unicode="&#35;" d="M500 104l-104 0 0 152-402 0 0 104 506 0z m-97 7l90 0 0 242-492 0 0-90 402 0z"/>
<glyph unicode="&#36;" d="M509 95l-104 0 0 153-402 0 0 103 435 0c39 0 71-31 71-72z m-97 7l90 0 0 177c0 37-28 66-64 66l-428 0 0-90 402 0z"/>
</font>
</defs>
</svg>
